img image001 image001 image001 image001 image001 image001 image001 image001 image001 image001 image001 image001 image001 image001 image001

Planets Sun Sun Sun
Статистика раздачи
Автор: Снежана | Размер: 2.83 ГБ | Добавлен: 27 июл 2013
Раздают: 69    Качают: 6
Скачать торрент
Скачать торрент
Описание торрента

СообщениеДобавлено: 27 июл 2013 

#77


Информация о фильме
Название: Роботы
Оригинальное название: Robots
Год выхода: 2005
Жанр: Mультфильм, фантастика, мелодрама, комедия, приключения, семейный
Режиссер: Крис Уэдж, Карлос Салдана
В ролях: Паула Абдул, Холли Берри, Люсиль Блисс, Терри Брэдшоу, Джим Броудбент, Мел Брукс, Аманда Байнс, Дрю Кэри, Дженнифер Кулидж, Дилан Дентон, Уилл Дентон, Маршалл Эфрон, Дэмиен Фэйхи, Лауэлл Ганц, Пол Джаматти, Дэн Хедайя, Джеки Хоффман, Джеймс Эрл Джонс, Грег Киннер, Джей Лено, Наташа Лионни, Брайан МакФедден, Эван МакГрегор, Тим Нордквист, Джэнсен Панеттьер, Эл Рокер, Алан Розенберг, Стивен Тоболовски, Стэнли Туччи, Крис Уэдж, Дайэнн Уист, Харланд Уильямс, Робин Уильямс, Кроуфорд Уилсон

О фильме:
Действие фильма разворачивается в мире, населенном исключительно роботами. Как и в мире людей у них есть своя социальная лестница, свои герои и изгои. Молодой гений Родни мечтает сделать мир роботов лучше. А еще ему очень нравится одна молоденькая сексапильная роботша Каппи. Но на пути всех его планов стоит ведущий дизайнер роботов Биг Велд, принадлежащий к тому же сословию, что и Каппи…

Страна: США
Студия: 20th Century Fox Animation, Blue Sky Studios
Продолжительность: 01:29:47
Перевод: Дублированный, профессиональный двухголосый

Файл
Кодек: h264
Качество: BDRip-AVC
Видео: MPEG-4 AVC, 2841 Kбит/с, 1024x554, 23.976 кадр/с

Звук:
• №1: Русский (AС3, 6 ch, 448 Кбит/с)
• №2: Английский (AС3, 6 ch, 448 Кбит/с)
• №3: Русский (AС3, 6 ch, 384 Кбит/с) Профессиональный двухголосый [Tycoon Studio] (отдельным файлом)
• №4: Украинский (AС3, 6 ch, 384 Кбит/с) Профессиональный многоголосый [Канал "1+1"] (отдельным файлом)

Субтитры: Pусские, английские

Полное имя : Roboty.2005.x264.BDRip.(AVC).0ptimus.mkv
Формат : Matroska
Версия формата : Version 2
Размер файла : 2,35 Гбайт
Продолжительность : 1 ч. 29 м.
Общий поток : 3739 Кбит/сек
Название фильма : Роботы / Robots [2005] -=BDRip (AVC) by 0ptimus=-
Дата кодирования : UTC 2012-09-23 05:37:18
Программа кодирования : mkvmerge v5.8.0 ('No Sleep / Pillow') built on Sep 2 2012 15:37:04
Библиотека кодирования : libebml v1.2.3 + libmatroska v1.3.0

Видео
Идентификатор : 1
Формат : AVC
Формат/Информация : Advanced Video Codec
Профиль формата : High@L4.1
Параметр CABAC формата : Да
Параметр ReFrames формата : 9 кадров
Идентификатор кодека : V_MPEG4/ISO/AVC
Продолжительность : 1 ч. 29 м.
Битрейт : 2841 Кбит/сек
Ширина : 1024 пикселя
Высота : 554 пикселя
Соотношение сторон : 1,85:1
Режим частоты кадров : Постоянный
Частота кадров : 23,976 кадра/сек
Цветовое пространство : YUV
Субдискретизация насыщенности : 4:2:0
Битовая глубина : 8 бит
Тип развёртки : Прогрессивная
Бит/(Пиксели*Кадры) : 0.209
Размер потока : 1,74 Гбайт (74%)
Заголовок : Rip by 0ptimus
Библиотека кодирования : x264 core 124 r2197 69a0443
Настройки программы : cabac=1 / ref=9 / deblock=1:-2:-1 / analyse=0x3:0x113 / me=umh /

subme=11 / psy=1 / psy_rd=1.00:0.20 / mixed_ref=1 / me_range=32 / chroma_me=1 / trellis=2 / 8x8dct=1 / cqm=0 /

deadzone=21,11 / fast_pskip=0 / chroma_qp_offset=-3 / threads=4 / sliced_threads=0 / nr=0 / decimate=0 /

interlaced=0 / bluray_compat=0 / constrained_intra=0 / bframes=6 / b_pyramid=2 / b_adapt=2 / b_bias=0 /

direct=3 / weightb=1 / open_gop=0 / weightp=2 / keyint=240 / keyint_min=23 / scenecut=40 / intra_refresh=0 /

rc=2pass / mbtree=0 / bitrate=2841 / ratetol=1.0 / qcomp=0.60 / qpmin=0 / qpmax=69 / qpstep=4 / cplxblur=20.0

/ qblur=0.5 / ip_ratio=1.40 / pb_ratio=1.30 / aq=1:1.00
Язык : English
Default : Да
Forced : Да

Аудио #1
Идентификатор : 2
Формат : AC-3
Формат/Информация : Audio Coding 3
Расширение режима : CM (complete main)
Параметр Endianness формата : Big
Идентификатор кодека : A_AC3
Продолжительность : 1 ч. 29 м.
Вид битрейта : Постоянный
Битрейт : 448 Кбит/сек
Каналы : 6 каналов
Расположение каналов : Front: L C R, Side: L R, LFE
Частота : 48,0 КГц
Битовая глубина : 16 бит
Метод сжатия : С потерями
Размер потока : 288 Мбайт (12%)
Заголовок : Дубляж
Язык : Russian
Default : Да
Forced : Да

Аудио #2
Идентификатор : 3
Формат : AC-3
Формат/Информация : Audio Coding 3
Расширение режима : CM (complete main)
Параметр Endianness формата : Big
Идентификатор кодека : A_AC3
Продолжительность : 1 ч. 29 м.
Вид битрейта : Постоянный
Битрейт : 448 Кбит/сек
Каналы : 6 каналов
Расположение каналов : Front: L C R, Side: L R, LFE
Частота : 48,0 КГц
Битовая глубина : 16 бит
Метод сжатия : С потерями
Размер потока : 288 Мбайт (12%)
Язык : English
Default : Нет
Forced : Нет

Текст #1
Идентификатор : 4
Формат : UTF-8
Идентификатор кодека : S_TEXT/UTF8
Идентификатор кодека/Информация : UTF-8 Plain Text
Язык : Russian
Default : Нет
Forced : Нет

Текст #2
Идентификатор : 5
Формат : UTF-8
Идентификатор кодека : S_TEXT/UTF8
Идентификатор кодека/Информация : UTF-8 Plain Text
Язык : English
Default : Нет
Forced : Нет

Меню
00:00:00.000 : :Rivet Town's Newest Arrival
00:02:03.540 : :The Copperbottom Boy
00:04:24.138 : :The World of Bigweld
00:07:17.311 : :The Inventor
00:10:50.983 : :Follow Your Dream
00:13:34.396 : :Robot City
00:15:52.826 : :The Crosstown Express
00:19:04.893 : :Those Days Are Over
00:22:42.611 : :Rodney Drops In
00:24:44.191 : :Magnetic Personality
00:26:44.394 : :Madame Gasket
00:29:24.512 : :Scroungers
00:33:03.773 : :Outmoded
00:34:58.346 : :The Rusties
00:36:36.444 : :Aunt Fanny's Boarding House
00:41:03.335 : :Repairs By Rodney
00:45:55.043 : :Going to the Bigweld Ball
00:49:53.198 : :Troublemaker
00:53:42.344 : :Looking for Mr. Bigweld
00:59:09.003 : :Fender Under Fire
01:01:02.992 : :Dad's Advice
01:04:39.875 : :Bigweld's Back!
01:06:54.760 : :Rodney on the Run
01:12:24.631 : :Robot Rebellion
01:16:12.901 : :See a Need, Fill a Need
01:19:00.235 : :My Right-Hand Bot
01:21:24.212 : :Get Up Offa That Thing
01:23:39.764 : :End Titles

x264 [info]: frame I:1447 Avg QP:14.14 size: 94325
x264 [info]: frame P:33485 Avg QP:18.14 size: 26208
x264 [info]: frame B:94241 Avg QP:20.68 size: 9544






Релиз от: 0ptimus



   Похожие торренты   Торрент   Размер 
В этой теме нет новых непрочитанных сообщений. Роботы / Robots (2005) BDRip (720p) от 0ptimus | D, P2

2 | 2

6.87 ГБ

В этой теме нет новых непрочитанных сообщений. Роботы / Robots (2005) BDRip (1080p) | D, P2

25 | 5

7.82 ГБ

В этой теме нет новых непрочитанных сообщений. Роботы / Robots (2005) BDRip 1080p

84 | 41

4.37 ГБ

В этой теме нет новых непрочитанных сообщений. Роботы / Robots (2005) BDRip-AVC от potroks | D

43 | 2

2.19 ГБ

В этой теме нет новых непрочитанных сообщений. Роботы / Robots (2005) BDRip от HQCLUB

66 | 21

1.73 ГБ

В этой теме нет новых непрочитанных сообщений. Роботы / Robots (2005) BDRip от HELLYWOOD

57 | 15

1.73 ГБ

В этой теме нет новых непрочитанных сообщений. Роботы / Robots (2005) BDRip-AVC | iPad

46 | 24

1.99 ГБ




Вы не можете начинать темы
Вы не можете отвечать на сообщения
Вы не можете редактировать свои сообщения
Вы не можете удалять свои сообщения
Вы не можете добавлять вложения

Перейти:  
Для Мосгорсуда, Роскомнадзора и рекламодателей: mosgorsud-torrent[собачка]yandex.ru
 Вход
ppkBB3cker v.2 © 2008-2014 @ PPK
[ Time : 0.024s | 14 Queries | GZIP : Off ]
CGP output time : 0.031s | 5 Queries | GZIP : Off

Торрент трекер RUTOR.IN, Не можете зайти на rutor.org? Какой новый адрес рутор? Какое зеркало рутор? Не работает rutor.org и зеркала? Тогда наш торрент специально для вас. Rutor.in неофициальное зеркало rutor. В случае если у Вас заблокирован rutor или вдруг Вы не можете на него зайти, то Вы без труда сможете скачать бесплатно и без рекламы последние новинки кино, игр, сериалов и прочего у нас, на Rutor.in. Не нужно использовать прокси, чтобы зайти на рутор, достаточно воспользоваться нашим ресурсом. Все новые фильмы, игры, сериалы, книги и музыка за 2013 и 2014 годы через торрент бесплатно. Скачивайте фильмы в хорошем качестве, игры для пк, xbox, playstation без регистрации. У нас вы найдете новые Зарубежные сериалы и Русские сериалы 2013, 2014, 2015 годов. Оставайтесь с нами, качайте любимые фильмы, игры, сериалы, книги и музыку.