img image001 image001 image001 image001 image001 image001 image001 image001 image001 image001 image001 image001 image001 image001 image001

Planets Sun Sun Sun
Статистика раздачи
Автор: Снежана | Размер: 6.87 ГБ | Добавлен: 27 июл 2013
Раздают: 2    Качают: 2
Скачать торрент
Скачать торрент
Описание торрента

СообщениеДобавлено: 27 июл 2013 

#77


Информация о фильме
Название: Роботы
Оригинальное название: Robots
Год выхода: 2005
Жанр: Mультфильм, фантастика, мелодрама, комедия, приключения, семейный
Режиссер: Крис Уэдж, Карлос Салдана
В ролях: Паула Абдул, Холли Берри, Люсиль Блисс, Терри Брэдшоу, Джим Броудбент, Мел Брукс, Аманда Байнс, Дрю Кэри, Дженнифер Кулидж, Дилан Дентон, Уилл Дентон, Маршалл Эфрон, Дэмиен Фэйхи, Лауэлл Ганц, Пол Джаматти, Дэн Хедайя, Джеки Хоффман, Джеймс Эрл Джонс, Грег Киннер, Джей Лено, Наташа Лионни, Брайан МакФедден, Эван МакГрегор, Тим Нордквист, Джэнсен Панеттьер, Эл Рокер, Алан Розенберг, Стивен Тоболовски, Стэнли Туччи, Крис Уэдж, Дайэнн Уист, Харланд Уильямс, Робин Уильямс, Кроуфорд Уилсон

О фильме:
Действие фильма разворачивается в мире, населенном исключительно роботами. Как и в мире людей у них есть своя социальная лестница, свои герои и изгои. Молодой гений Родни мечтает сделать мир роботов лучше. А еще ему очень нравится одна молоденькая сексапильная роботша Каппи. Но на пути всех его планов стоит ведущий дизайнер роботов Биг Велд, принадлежащий к тому же сословию, что и Каппи…

Страна: США
Студия: 20th Century Fox Animation, Blue Sky Studios
Продолжительность: 01:29:47
Перевод: Дублированный, профессиональный двухголосый

Файл
Кодек: h264
Качество: BDRip (720p)
Видео: MPEG-4 AVC, 5980 Kбит/с, 1280x694, 23.976 кадр/с

Звук:
• №1: Русский (AС3, 6 ch, 640 Кбит/с) Дублированный
• №2: Русский (AС3, 6 ch, 640 Кбит/с) Профессиональный двухголосый [Tycoon Studio]
• №3: Украинский (AС3, 6 ch, 384 Кбит/с) Профессиональный многоголосый [Канал "1+1"]
• №4: Английский (AС3, 6 ch, 640 Кбит/с)
• №5: Английский (AС3, 2 ch, 192 Кбит/с) Комментарии №1
• №6: Английский (AС3, 2 ch, 192 Кбит/с) Комментарии №2
Отдельно:
• №7: Русский (DTS, 6 ch, 768 Кбит/с) Дублированный
• №8: Русский (DTS, 6 ch, 768 Кбит/с) Профессиональный двухголосый [Tycoon Studio]
• №9: Английский (DTS, 6 ch, 768 Кбит/с)

Субтитры: Pусские, английские

Прагматик:
— Дорожка №8 получена путем наложения выделенных / чистых голосов на центр декодированноно DTS оригинала.
— За исходники для выделения Tycoon большое спасибо adolf_dass и Vouka.
— Исходный Tycoon как всегда был положен в мерзкой манере "псевдодубляж", соответстенно полностью расставлен по новой с задержкой относительно оригинала 400 - 850 ms. Озвучка отличнейшая, рекомендую смотреть в ней. Но, справедливости ради, хочу заметить, что дубляж тоже крайне не плох.
— Украинскую дорогу "1+1" как смог поправил после "умелых ручек" коллег с Хуртом. Сейчас звучит достаточно неплохо.

Полное имя : Roboty.2005.x264.BDRip.(720p).mkv
Формат : Matroska
Версия формата : Version 4 / Version 2
Размер файла : 5,43 Гбайт
Продолжительность : 1 ч. 29 м.
Общий поток : 8656 Кбит/сек
Название фильма : Роботы | Robots [2005] -=BDRip (720p)=-
Дата кодирования : UTC 2013-02-06 10:14:33
Программа кодирования : mkvmerge v6.0.0 ('Coming Up For Air') built on Jan 20 2013 09:52:00
Библиотека кодирования : libebml v1.3.0 + libmatroska v1.4.0

Видео
Идентификатор : 1
Формат : AVC
Формат/Информация : Advanced Video Codec
Профиль формата : High@L4.1
Параметр CABAC формата : Да
Параметр ReFrames формата : 9 кадров
Идентификатор кодека : V_MPEG4/ISO/AVC
Продолжительность : 1 ч. 29 м.
Битрейт : 5980 Кбит/сек
Ширина : 1280 пикселей
Высота : 694 пикселя
Соотношение сторон : 1,85:1
Режим частоты кадров : Постоянный
Частота кадров : 23,976 кадра/сек
Цветовое пространство : YUV
Субдискретизация насыщенности : 4:2:0
Битовая глубина : 8 бит
Тип развёртки : Прогрессивная
Бит/(Пиксели*Кадры) : 0.281
Размер потока : 3,64 Гбайт (67%)
Заголовок : HDCLUB by Sunny
Библиотека кодирования : x264 core 88 r1471 1144615
Настройки программы : cabac=1 / ref=9 / deblock=1:1:1 / analyse=0x3:0x133 / me=esa / subme=9 / psy=1 / psy_rd=1.00:0.20 / mixed_ref=1 / me_range=24 / chroma_me=1 / trellis=2 / 8x8dct=1 / cqm=0 / deadzone=21,11 / fast_pskip=0 / chroma_qp_offset=-3 / threads=12 / sliced_threads=0 / nr=0 / decimate=0 / mbaff=0 / constrained_intra=0 / bframes=12 / b_pyramid=2 / b_adapt=2 / b_bias=0 / direct=3 / wpredb=1 / wpredp=2 / keyint=240 / keyint_min=24 / scenecut=40 / intra_refresh=0 / rc_lookahead=60 / rc=cbr / mbtree=1 / bitrate=5980 / ratetol=1.0 / qcomp=0.80 / qpmin=10 / qpmax=51 / qpstep=4 / vbv_maxrate=40000 / vbv_bufsize=30000 / ip_ratio=1.40 / aq=2:1.00
Язык : English
Default : Да
Forced : Да

Аудио #1
Идентификатор : 2
Формат : AC-3
Формат/Информация : Audio Coding 3
Расширение режима : CM (complete main)
Параметр Endianness формата : Big
Идентификатор кодека : A_AC3
Продолжительность : 1 ч. 29 м.
Вид битрейта : Постоянный
Битрейт : 640 Кбит/сек
Каналы : 6 каналов
Расположение каналов : Front: L C R, Side: L R, LFE
Частота : 48,0 КГц
Битовая глубина : 16 бит
Метод сжатия : С потерями
Размер потока : 411 Мбайт (7%)
Заголовок : Дублированный
Язык : Russian
Default : Да
Forced : Да

Аудио #2
Идентификатор : 3
Формат : AC-3
Формат/Информация : Audio Coding 3
Расширение режима : CM (complete main)
Параметр Endianness формата : Big
Идентификатор кодека : A_AC3
Продолжительность : 1 ч. 29 м.
Вид битрейта : Постоянный
Битрейт : 640 Кбит/сек
Каналы : 6 каналов
Расположение каналов : Front: L C R, Side: L R, LFE
Частота : 48,0 КГц
Битовая глубина : 16 бит
Метод сжатия : С потерями
Размер потока : 411 Мбайт (7%)
Заголовок : Двухголосый закадровый [Tycoon]
Язык : Russian
Default : Нет
Forced : Нет

Аудио #3
Идентификатор : 4
Формат : AC-3
Формат/Информация : Audio Coding 3
Расширение режима : CM (complete main)
Параметр Endianness формата : Big
Идентификатор кодека : A_AC3
Продолжительность : 1 ч. 29 м.
Вид битрейта : Постоянный
Битрейт : 384 Кбит/сек
Каналы : 6 каналов
Расположение каналов : Front: L C R, Side: L R, LFE
Частота : 48,0 КГц
Битовая глубина : 16 бит
Метод сжатия : С потерями
Размер потока : 247 Мбайт (4%)
Заголовок : Многоголосый закадровый [1+1]
Язык : Ukrainian
Default : Нет
Forced : Нет

Аудио #4
Идентификатор : 5
Формат : AC-3
Формат/Информация : Audio Coding 3
Расширение режима : CM (complete main)
Параметр Endianness формата : Big
Идентификатор кодека : A_AC3
Продолжительность : 1 ч. 29 м.
Вид битрейта : Постоянный
Битрейт : 640 Кбит/сек
Каналы : 6 каналов
Расположение каналов : Front: L C R, Side: L R, LFE
Частота : 48,0 КГц
Битовая глубина : 16 бит
Метод сжатия : С потерями
Размер потока : 411 Мбайт (7%)
Язык : English
Default : Нет
Forced : Нет

Аудио #5
Идентификатор : 6
Формат : AC-3
Формат/Информация : Audio Coding 3
Расширение режима : CM (complete main)
Параметр Endianness формата : Big
Идентификатор кодека : A_AC3
Продолжительность : 1 ч. 29 м.
Вид битрейта : Постоянный
Битрейт : 192 Кбит/сек
Каналы : 2 канала
Расположение каналов : Front: L R
Частота : 48,0 КГц
Битовая глубина : 16 бит
Метод сжатия : С потерями
Размер потока : 123 Мбайт (2%)
Заголовок : Комментарии #1
Язык : English
Default : Нет
Forced : Нет

Аудио #6
Идентификатор : 7
Формат : AC-3
Формат/Информация : Audio Coding 3
Расширение режима : CM (complete main)
Параметр Endianness формата : Big
Идентификатор кодека : A_AC3
Продолжительность : 1 ч. 29 м.
Вид битрейта : Постоянный
Битрейт : 192 Кбит/сек
Каналы : 2 канала
Расположение каналов : Front: L R
Частота : 48,0 КГц
Битовая глубина : 16 бит
Метод сжатия : С потерями
Размер потока : 123 Мбайт (2%)
Заголовок : Комментарии #2
Язык : English
Default : Нет
Forced : Нет

Текст #1
Идентификатор : 8
Формат : UTF-8
Идентификатор кодека : S_TEXT/UTF8
Идентификатор кодека/Информация : UTF-8 Plain Text
Язык : Russian
Default : Нет
Forced : Нет

Текст #2
Идентификатор : 9
Формат : UTF-8
Идентификатор кодека : S_TEXT/UTF8
Идентификатор кодека/Информация : UTF-8 Plain Text
Язык : English
Default : Нет
Forced : Нет

Меню
00:00:00.000 : :Rivet Town's Newest Arrival
00:02:03.540 : :The Copperbottom Boy
00:04:24.138 : :The World of Bigweld
00:07:17.311 : :The Inventor
00:10:50.983 : :Follow Your Dream
00:13:34.396 : :Robot City
00:15:52.826 : :The Crosstown Express
00:19:04.893 : :Those Days Are Over
00:22:42.611 : :Rodney Drops In
00:24:44.191 : :Magnetic Personality
00:26:44.394 : :Madame Gasket
00:29:24.512 : :Scroungers
00:33:03.773 : :Outmoded
00:34:58.346 : :The Rusties
00:36:36.444 : :Aunt Fanny's Boarding House
00:41:03.335 : :Repairs By Rodney
00:45:55.043 : :Going to the Bigweld Ball
00:49:53.198 : :Troublemaker
00:53:42.344 : :Looking for Mr. Bigweld
00:59:09.003 : :Fender Under Fire
01:01:02.992 : :Dad's Advice
01:04:39.875 : :Bigweld's Back!
01:06:54.760 : :Rodney on the Run
01:12:24.631 : :Robot Rebellion
01:16:12.901 : :See a Need, Fill a Need
01:19:00.235 : :My Right-Hand Bot
01:21:24.212 : :Get Up Offa That Thing
01:23:39.764 : :End Titles





Релиз от: 0ptimus



   Похожие торренты   Торрент   Размер 
В этой теме нет новых непрочитанных сообщений. Роботы / Robots (2005) BDRip-AVC от 0ptimus | D, P2

69 | 6

2.83 ГБ

В этой теме нет новых непрочитанных сообщений. Роботы / Robots (2005) BDRip 720p от NNNB | 60 fps

46 | 29

6.25 ГБ

В этой теме нет новых непрочитанных сообщений. Роботы / Robots (2005) BDRip 720p от HD Club

1 | 3

4.85 ГБ

В этой теме нет новых непрочитанных сообщений. Роботы / Robots (2005) BDRip 720p от Leonardo and Scarabey

323 | 51

2.81 ГБ

В этой теме нет новых непрочитанных сообщений. Роботы / Robots (2005) BDRip-AVC от potroks | D

43 | 2

2.19 ГБ

В этой теме нет новых непрочитанных сообщений. Роботы / Robots (2005) BDRip-AVC | iPad

46 | 24

1.99 ГБ

В этой теме нет новых непрочитанных сообщений. Роботы / Robots (2005) BDRip от HELLYWOOD

57 | 15

1.73 ГБ




Вы не можете начинать темы
Вы не можете отвечать на сообщения
Вы не можете редактировать свои сообщения
Вы не можете удалять свои сообщения
Вы не можете добавлять вложения

Перейти:  
Для Мосгорсуда, Роскомнадзора и рекламодателей: mosgorsud-torrent[собачка]yandex.ru
 Вход
ppkBB3cker v.2 © 2008-2014 @ PPK
[ Time : 2.660s | 14 Queries | GZIP : Off ]

Торрент трекер RUTOR.IN, Не можете зайти на rutor.org? Какой новый адрес рутор? Какое зеркало рутор? Не работает rutor.org и зеркала? Тогда наш торрент специально для вас. Rutor.in неофициальное зеркало rutor. В случае если у Вас заблокирован rutor или вдруг Вы не можете на него зайти, то Вы без труда сможете скачать бесплатно и без рекламы последние новинки кино, игр, сериалов и прочего у нас, на Rutor.in. Не нужно использовать прокси, чтобы зайти на рутор, достаточно воспользоваться нашим ресурсом. Все новые фильмы, игры, сериалы, книги и музыка за 2013 и 2014 годы через торрент бесплатно. Скачивайте фильмы в хорошем качестве, игры для пк, xbox, playstation без регистрации. У нас вы найдете новые Зарубежные сериалы и Русские сериалы 2013, 2014, 2015 годов. Оставайтесь с нами, качайте любимые фильмы, игры, сериалы, книги и музыку.