img image001 image001 image001 image001 image001 image001 image001 image001 image001 image001 image001 image001 image001 image001 image001

Planets Sun Sun Sun
Статистика раздачи
Автор: Снежана | Размер: 21.49 ГБ | Добавлен: 27 июл 2013
Раздают: 10    Качают: 2
Скачать торрент
Скачать торрент
Описание торрента

СообщениеДобавлено: 27 июл 2013 

#77


Информация о фильме
Название: Роботы
Оригинальное название: Robots
Год выхода: 2005
Жанр: Mультфильм, фантастика, мелодрама, комедия, приключения, семейный
Режиссер: Крис Уэдж, Карлос Салдана
В ролях: Паула Абдул, Холли Берри, Люсиль Блисс, Терри Брэдшоу, Джим Броудбент, Мел Брукс, Аманда Байнс, Дрю Кэри, Дженнифер Кулидж, Дилан Дентон, Уилл Дентон, Маршалл Эфрон, Дэмиен Фэйхи, Лауэлл Ганц, Пол Джаматти, Дэн Хедайя, Джеки Хоффман, Джеймс Эрл Джонс, Грег Киннер, Джей Лено, Наташа Лионни, Брайан МакФедден, Эван МакГрегор, Тим Нордквист, Джэнсен Панеттьер, Эл Рокер, Алан Розенберг, Стивен Тоболовски, Стэнли Туччи, Крис Уэдж, Дайэнн Уист, Харланд Уильямс, Робин Уильямс, Кроуфорд Уилсон

О фильме:
Действие фильма разворачивается в мире, населенном исключительно роботами. Как и в мире людей у них есть своя социальная лестница, свои герои и изгои. Молодой гений Родни мечтает сделать мир роботов лучше. А еще ему очень нравится одна молоденькая сексапильная роботша Каппи. Но на пути всех его планов стоит ведущий дизайнер роботов Биг Велд, принадлежащий к тому же сословию, что и Каппи…

Страна: США
Студия: 20th Century Fox Animation, Blue Sky Studios
Продолжительность: 01:29:47
Перевод: Дублированный, профессиональный двухголосый

Файл
Кодек: h264
Качество: Blu-Ray Remux (1080p)
Видео: MPEG-4 AVC, 31.33 Мбит/с, 1920x1080, 23.976 кадр/с

Звук:
Аудио#1: Russian: 48 kHz, DTS, 3/2 (L,C,R,l,r) + LFE ch, ~768.00 kbps avg |Дубляж, Blu-ray CEE|
Аудио#2: Russian: 48 kHz, DTS, 3/2 (L,C,R,l,r) + LFE ch, ~768.00 kbps avg |Двухголосый закадровый, Tycoon|
Аудио#3: Ukrainian: 48 kHz, AC3, 3/2 (L,C,R,l,r) + LFE ch, ~384.00 kbps avg |Многоголосый закадровый, 1+1|
Аудио#4: English: 48 kHz, DTS, 3/2 (L,C,R,l,r) + LFE ch, ~768.00 kbps avg
Аудио#5: English: 48 kHz, AC3, 2/0 (L,R) ch, ~192.00 kbps avg |Commentary #1|
Аудио#6: English: 48 kHz, AC3, 2/0 (L,R) ch, ~192.00 kbps avg |Commentary #2|

Субтитры: Pусские, английские

Прагматик:
— Дорожка №2 получена путем наложения выделенных / чистых голосов на центр декодированноно DTS оригинала
— За исходники для выделения Tycoon большое спасибо adolf_dass и Vouka
— Исходный Tycoon как всегда был положен в мерзкой манере "псевдодубляж", соответстенно полностью расставлен по новой с задержкой относительно оригинала 400 - 850 ms. Озвучка отличнейшая, рекомендую смотреть в ней. Но, справедливости ради, хочу заметить, что дубляж тоже крайне не плох
— Украинскую дорогу "1+1" как смог поправил после "умелых ручек" коллег с Хуртом. Сейчас звучит достаточно неплохо
— Первые коментарии из лицензионного DVD

Полное имя : Roboty.2005.x264.Blu-Ray.Remux.(1080p).HDClub.mkv
Формат : Matroska
Версия формата : Version 4 / Version 2
Размер файла : 21,5 Гбайт
Продолжительность : 1 ч. 29 м.
Режим общего битрейта : Переменный
Общий поток : 34,3 Мбит/сек
Название фильма : Роботы | Robots [2005] -=Blu-Ray Remux (1080p) by Прагматик=-
Дата кодирования : UTC 2013-02-05 07:09:10
Программа кодирования : mkvmerge v6.0.0 ('Coming Up For Air') built on Jan 20 2013 09:52:00
Библиотека кодирования : libebml v1.3.0 + libmatroska v1.4.0

Видео
Идентификатор : 1
Формат : AVC
Формат/Информация : Advanced Video Codec
Профиль формата : High@L4.1
Параметр CABAC формата : Да
Параметр ReFrames формата : 4 кадра
Идентификатор кодека : V_MPEG4/ISO/AVC
Продолжительность : 1 ч. 29 м.
Вид битрейта : Переменный
Битрейт : 30,6 Мбит/сек
Максимальный битрейт : 33,8 Мбит/сек
Ширина : 1920 пикселей
Высота : 1080 пикселей
Соотношение сторон : 16:9
Режим частоты кадров : Постоянный
Частота кадров : 23,976 кадра/сек
Цветовое пространство : YUV
Субдискретизация насыщенности : 4:2:0
Битовая глубина : 8 бит
Тип развёртки : Прогрессивная
Бит/(Пиксели*Кадры) : 0.615
Размер потока : 19,2 Гбайт (89%)
Язык : English
Default : Да
Forced : Да
Основные цвета : BT.709
Характеристики трансфера : BT.709
Коэффициенты матрицы : BT.709

Аудио #1
Идентификатор : 2
Формат : DTS
Формат/Информация : Digital Theater Systems
Идентификатор кодека : A_DTS
Продолжительность : 1 ч. 29 м.
Вид битрейта : Постоянный
Битрейт : 755 Кбит/сек
Каналы : 6 каналов
Расположение каналов : Front: L C R, Side: L R, LFE
Частота : 48,0 КГц
Битовая глубина : 24 бит
Метод сжатия : С потерями
Размер потока : 485 Мбайт (2%)
Заголовок : Дублированный [BD CEE]
Язык : Russian
Default : Да
Forced : Да

Аудио #2
Идентификатор : 3
Формат : DTS
Формат/Информация : Digital Theater Systems
Идентификатор кодека : A_DTS
Продолжительность : 1 ч. 29 м.
Вид битрейта : Постоянный
Битрейт : 755 Кбит/сек
Каналы : 6 каналов
Расположение каналов : Front: L C R, Side: L R, LFE
Частота : 48,0 КГц
Битовая глубина : 24 бит
Метод сжатия : С потерями
Размер потока : 485 Мбайт (2%)
Заголовок : Двухголосый закадровый [Tycoon]
Язык : Russian
Default : Нет
Forced : Нет

Аудио #3
Идентификатор : 4
Формат : AC-3
Формат/Информация : Audio Coding 3
Расширение режима : CM (complete main)
Параметр Endianness формата : Big
Идентификатор кодека : A_AC3
Продолжительность : 1 ч. 29 м.
Вид битрейта : Постоянный
Битрейт : 384 Кбит/сек
Каналы : 6 каналов
Расположение каналов : Front: L C R, Side: L R, LFE
Частота : 48,0 КГц
Битовая глубина : 16 бит
Метод сжатия : С потерями
Размер потока : 247 Мбайт (1%)
Заголовок : Многоголосый закадровый [1+1]
Язык : Ukrainian
Default : Нет
Forced : Нет

Аудио #4
Идентификатор : 5
Формат : DTS
Формат/Информация : Digital Theater Systems
Идентификатор кодека : A_DTS
Продолжительность : 1 ч. 29 м.
Вид битрейта : Постоянный
Битрейт : 755 Кбит/сек
Каналы : 6 каналов
Расположение каналов : Front: L C R, Side: L R, LFE
Частота : 48,0 КГц
Битовая глубина : 24 бит
Метод сжатия : С потерями
Размер потока : 485 Мбайт (2%)
Язык : English
Default : Нет
Forced : Нет

Аудио #5
Идентификатор : 6
Формат : AC-3
Формат/Информация : Audio Coding 3
Расширение режима : CM (complete main)
Параметр Endianness формата : Big
Идентификатор кодека : A_AC3
Продолжительность : 1 ч. 29 м.
Вид битрейта : Постоянный
Битрейт : 192 Кбит/сек
Каналы : 2 канала
Расположение каналов : Front: L R
Частота : 48,0 КГц
Битовая глубина : 16 бит
Метод сжатия : С потерями
Размер потока : 123 Мбайт (1%)
Заголовок : Комментарии #1
Язык : English
Default : Нет
Forced : Нет

Аудио #6
Идентификатор : 7
Формат : AC-3
Формат/Информация : Audio Coding 3
Расширение режима : CM (complete main)
Параметр Endianness формата : Big
Идентификатор кодека : A_AC3
Продолжительность : 1 ч. 29 м.
Вид битрейта : Постоянный
Битрейт : 192 Кбит/сек
Каналы : 2 канала
Расположение каналов : Front: L R
Частота : 48,0 КГц
Битовая глубина : 16 бит
Метод сжатия : С потерями
Размер потока : 123 Мбайт (1%)
Заголовок : Комментарии #2
Язык : English
Default : Нет
Forced : Нет

Текст #1
Идентификатор : 8
Формат : UTF-8
Идентификатор кодека : S_TEXT/UTF8
Идентификатор кодека/Информация : UTF-8 Plain Text
Язык : Russian
Default : Нет
Forced : Нет

Текст #2
Идентификатор : 9
Формат : UTF-8
Идентификатор кодека : S_TEXT/UTF8
Идентификатор кодека/Информация : UTF-8 Plain Text
Язык : English
Default : Нет
Forced : Нет

Меню
00:00:00.000 : :Rivet Town's Newest Arrival
00:02:03.540 : :The Copperbottom Boy
00:04:24.138 : :The World of Bigweld
00:07:17.311 : :The Inventor
00:10:50.983 : :Follow Your Dream
00:13:34.396 : :Robot City
00:15:52.826 : :The Crosstown Express
00:19:04.893 : :Those Days Are Over
00:22:42.611 : :Rodney Drops In
00:24:44.191 : :Magnetic Personality
00:26:44.394 : :Madame Gasket
00:29:24.512 : :Scroungers
00:33:03.773 : :Outmoded
00:34:58.346 : :The Rusties
00:36:36.444 : :Aunt Fanny's Boarding House
00:41:03.335 : :Repairs By Rodney
00:45:55.043 : :Going to the Bigweld Ball
00:49:53.198 : :Troublemaker
00:53:42.344 : :Looking for Mr. Bigweld
00:59:09.003 : :Fender Under Fire
01:01:02.992 : :Dad's Advice
01:04:39.875 : :Bigweld's Back!
01:06:54.760 : :Rodney on the Run
01:12:24.631 : :Robot Rebellion
01:16:12.901 : :See a Need, Fill a Need
01:19:00.235 : :My Right-Hand Bot
01:21:24.212 : :Get Up Offa That Thing
01:23:39.764 : :End Titles






   Похожие торренты   Торрент   Размер 
В этой теме нет новых непрочитанных сообщений. Роботы / Robots (2005) Blu-Ray Remux 1080p от HDClub | D, P2

20 | 16

21.49 ГБ

В этой теме нет новых непрочитанных сообщений. Роботы / Robots (2005) BDRip (1080p) | D, P2

25 | 5

7.82 ГБ

В этой теме нет новых непрочитанных сообщений. Роботы / Robots (2005) BDRip 1080p

84 | 41

4.37 ГБ

В этой теме нет новых непрочитанных сообщений. Роботы / Robots (2005) CEE BDRip 1080p от FreeHD

18 | 8

7.89 ГБ

В этой теме нет новых непрочитанных сообщений. Роботы / Robots (2005) Blu-Ray CEE

2 | 1

31.95 ГБ

В этой теме нет новых непрочитанных сообщений. Трансформеры: Скрытые роботы / Трансформеры: Роботы в маскировке / Transformers: Robots in Disguise [01x01-02] (2015) WEB-DL 1080p | L, L1

151 | 18

1.91 ГБ

В этой теме нет новых непрочитанных сообщений. Роботы / Robots (2005) DVD9

0 | 1

5.18 ГБ




Вы не можете начинать темы
Вы не можете отвечать на сообщения
Вы не можете редактировать свои сообщения
Вы не можете удалять свои сообщения
Вы не можете добавлять вложения

Перейти:  
Для Мосгорсуда, Роскомнадзора и рекламодателей: mosgorsud-torrent[собачка]yandex.ru
 Вход
ppkBB3cker v.2 © 2008-2014 @ PPK
[ Time : 0.527s | 15 Queries | GZIP : Off ]

Торрент трекер RUTOR.IN, Не можете зайти на rutor.org? Какой новый адрес рутор? Какое зеркало рутор? Не работает rutor.org и зеркала? Тогда наш торрент специально для вас. Rutor.in неофициальное зеркало rutor. В случае если у Вас заблокирован rutor или вдруг Вы не можете на него зайти, то Вы без труда сможете скачать бесплатно и без рекламы последние новинки кино, игр, сериалов и прочего у нас, на Rutor.in. Не нужно использовать прокси, чтобы зайти на рутор, достаточно воспользоваться нашим ресурсом. Все новые фильмы, игры, сериалы, книги и музыка за 2013 и 2014 годы через торрент бесплатно. Скачивайте фильмы в хорошем качестве, игры для пк, xbox, playstation без регистрации. У нас вы найдете новые Зарубежные сериалы и Русские сериалы 2013, 2014, 2015 годов. Оставайтесь с нами, качайте любимые фильмы, игры, сериалы, книги и музыку.