img image001 image001 image001 image001 image001 image001 image001 image001 image001 image001 image001 image001 image001 image001 image001

Planets Sun Sun Sun
Статистика раздачи
Автор: Снежана | Размер: 6 ГБ | Добавлен: 27 июл 2013, 10:07
Раздают: 19    Качают: 7
Скачать торрент
Скачать торрент
Описание торрента

СообщениеДобавлено: 27 июл 2013, 10:07 

#77

Информация о фильме
Название: Школа монстров: Классные девчонки
Оригинальное название: Monster High: Ghoul's Rule!
Год выхода: 2012
Жанр: Мультфильм, семейный
Режиссер: Майк Феттрели, Стив Сакс
В ролях: Лора Бэйли, Хэнк Бэнкс, Кэм Кларк, Эндрю Дункан, Эрин Фицджералд, Ди Ди Грин, Кейт Хиггинс, Джули Маддалена, Марк Меркадо, Оду Паден, Синди Робинсон, Салли Саффиоти

О фильме:
Школа монстров проливает свет на давний конфликт между людьми и монстрами — и события начинают принимать пугающий оборот! Годами студенты Школы монстров верили, что в ночь Хеллоуина следует не высовываться на улицу и избегать конфликтов любой ценой. Но Фрэнки и ее друзья узнают, что, оказывается, когда-то вампиры и люди с удовольствием отмечали этот праздник вместе! Наши герои решают повернуть время вспять и под покровом темноты проявить свою индивидуальность, показав, как классно быть собою, быть уникальной и — быть монстром!

General
Complete name : Shkola.Monstrov.2012.BDRip.1080p.mkv
Format : Matroska
File size : 6.00 GiB
Duration : 1h 11mn
Overall bit rate : 12.0 Mbps
Encoded date : UTC 2013-02-07 10:38:05
Writing application : mkvmerge v2.4.2 ('Oh My God') built on Jan 18 2009 17:30:28
Writing library : libebml v0.7.7 + libmatroska v0.8.1

Video
ID : 1
Format : AVC
Format/Info : Advanced Video Codec
Format profile : High@L4.1
Format settings, CABAC : Yes
Format settings, ReFrames : 4 frames
Muxing mode : Container profile=Unknown@4.1
Codec ID : V_MPEG4/ISO/AVC
Duration : 1h 11mn
Bit rate : 11.4 Mbps
Nominal bit rate : 11.7 Mbps
Width : 1 920 pixels
Height : 1 080 pixels
Display aspect ratio : 16:9
Frame rate : 23.976 fps
Resolution : 24 bits
Colorimetry : 4:2:0
Scan type : Progressive
Bits/(Pixel*Frame) : 0.230
Stream size : 5.68 GiB (95%)
Writing library : x264 core 128 r2216 198a7ea
Encoding settings : cabac=1 / ref=4 / deblock=1:0:0 / analyse=0x3:0x113 / me=umh / subme=7 / psy=1 / psy_rd=1.00:0.00 / mixed_ref=1 / me_range=16 / chroma_me=1 / trellis=1 / 8x8dct=1 / cqm=0 / deadzone=21,11 / fast_pskip=1 / chroma_qp_offset=-2 / threads=6 / lookahead_threads=1 / sliced_threads=0 / nr=0 / decimate=1 / interlaced=0 / bluray_compat=0 / constrained_intra=0 / bframes=3 / b_pyramid=2 / b_adapt=1 / b_bias=0 / direct=1 / weightb=1 / open_gop=0 / weightp=2 / keyint=240 / keyint_min=23 / scenecut=40 / intra_refresh=0 / rc_lookahead=40 / rc=2pass / mbtree=1 / bitrate=11654 / ratetol=1.0 / qcomp=0.60 / qpmin=0 / qpmax=69 / qpstep=4 / cplxblur=20.0 / qblur=0.5 / ip_ratio=1.40 / aq=1:1.00
Language : English

Audio
ID : 2
Format : AC-3
Format/Info : Audio Coding 3
Codec ID : A_AC3
Duration : 1h 11mn
Bit rate mode : Constant
Bit rate : 384 Kbps
Channel(s) : 6 channels
Channel positions : Front: L C R, Surround: L R, LFE
Sampling rate : 48.0 KHz
Stream size : 196 MiB (3%)
Language : Russian

Menu
00:00:00.000 : en:00:00:00.000
00:06:54.789 : en:00:06:54.789
00:10:54.821 : en:00:10:54.821
00:18:32.111 : en:00:18:32.111
00:24:01.065 : en:00:24:01.065
00:28:11.189 : en:00:28:11.189
00:36:41.282 : en:00:36:41.282
00:44:34.380 : en:00:44:34.380
00:50:53.008 : en:00:50:53.008
00:54:39.651 : en:00:54:39.651
01:00:38.385 : en:01:00:38.385
01:10:48.161 : en:01:10:48.161




6+ (зрителям, достигшим 6 лет)

Страна: США / Mattel Entertainment
Продолжительность: 01:11:19
Перевод: Дублированный

Файл
Кодек: AVC
Качество: BDRip 1080p
Видео: 1920x1080, 11.7 Мбит/с, 23.976 кадр/с
Звук: AC3 5.1 , 384 Кбит/c




   Похожие торренты   Торрент   Размер 
В этой теме нет новых непрочитанных сообщений. Школа монстров: Классные девчонки / Monster High: Ghoul's Rule! (2012) HDRip | Лицензия

160 | 21

1.37 ГБ

В этой теме нет новых непрочитанных сообщений. Школа монстров: Классные девчонки / Monster High: Ghoul's Rule! (2012) WEB-DL 720p от HDClub

87 | 4

2.37 ГБ

В этой теме нет новых непрочитанных сообщений. Школа монстров: Классные девчонки / Monster High: Ghoul's Rule! (2012) HDRip от Torrent-Xzona | КПК | D

27 | 11

339.54 МБ

В этой теме нет новых непрочитанных сообщений. Школа монстров / Monster High: Ghoul's Rule! (2012) HDRip | L2

31 | 15

1.05 ГБ

В этой теме нет новых непрочитанных сообщений. Школа монстров: Мотор! / Monster High: Fright On! (2012) BDRip-AVC | iPad | D

104 | 17

699.75 МБ

В этой теме нет новых непрочитанных сообщений. Школа монстров: Мотор! / Monster High: Fright On! (2012) BDRip-AVC | iPad | D

27 | 15

698.7 МБ

В этой теме нет новых непрочитанных сообщений. Школа монстров: Побег с Острова черепов / Monster High: Escape from Skull Shores (2012) BDRip | D

256 | 50

1.06 ГБ




Вы не можете начинать темы
Вы не можете отвечать на сообщения
Вы не можете редактировать свои сообщения
Вы не можете удалять свои сообщения
Вы не можете добавлять вложения

Перейти:  
Для Мосгорсуда, Роскомнадзора и рекламодателей: mosgorsud-torrent[собачка]yandex.ru
Настройки
ppkBB3cker v.2 © 2008-2014 @ PPK
[ Time : 0.518s | 16 Queries | GZIP : Off ]
CGP [Extreme] output time : 0.00023s | 0 Queries | GZIP : Off

Торрент трекер RUTOR.IN, Не можете зайти на rutor.org? Какой новый адрес рутор? Какое зеркало рутор? Не работает rutor.org и зеркала? Тогда наш торрент специально для вас. Rutor.in неофициальное зеркало rutor. В случае если у Вас заблокирован rutor или вдруг Вы не можете на него зайти, то Вы без труда сможете скачать бесплатно и без рекламы последние новинки кино, игр, сериалов и прочего у нас, на Rutor.in. Не нужно использовать прокси, чтобы зайти на рутор, достаточно воспользоваться нашим ресурсом. Все новые фильмы, игры, сериалы, книги и музыка за 2013 и 2014 годы через торрент бесплатно. Скачивайте фильмы в хорошем качестве, игры для пк, xbox, playstation без регистрации. У нас вы найдете новые Зарубежные сериалы и Русские сериалы 2013, 2014, 2015 годов. Оставайтесь с нами, качайте любимые фильмы, игры, сериалы, книги и музыку.