img image001 image001 image001 image001 image001 image001 image001 image001 image001 image001 image001 image001 image001 image001 image001

Planets Sun Sun Sun
Статистика раздачи
Автор: Снежана | Размер: 8.85 ГБ | Добавлен: 27 июл 2013
Раздают: 3    Качают: 2
Скачать торрент
Скачать торрент
Описание торрента

СообщениеДобавлено: 27 июл 2013 

#77


Тэд Джонс и Затерянный город / Las aventuras de Tadeo Jones
«По следам Индианы Джонса»


#77

Страна: Испания
Студия: Paramaunt Pictures, Mediaset Espana, Intereconomia, El Toro Pictures, Lightbox Entertainment, Ikiru Films S.L., Telecinco Cinema, Telefonica Producciones
Жанр: мультфильм, приключения, семейный
Год выпуска: 2012
Продолжительность: 01:31:55

Перевод: русский дубляж [Лицензия, BD RUS]
Забугорная аудиодорожка: английская [BD RUS]
Русские субтитры: есть
Режиссер: Энрике Гато / Enrique Gato
Роли озвучивали: Оскар Барберан, Меритксель Ане, Фиона Глэскотт, Карлес Канут, Адам Джеймс, Мишель Хеннер, Мигель Анхель Дженнер, Энрикета Линарес, Мак МакДональд, Брюс Маккиннон
Роли дублировали: Пётр Иващенко, Станислав Дужников, Федор Добронравов, Даниил Эльдаров, Марина Александрова, Григорий Антипенко


Тэд — обычный чикагский строитель, страстно мечтающий о невероятных открытиях и опасных приключениях. Однажды его по ошибке принимают за известного археолога и отправляют в Перу на поиски сокровищ инков. Радости Тэда не было предела, но, похоже, она оказалась преждевременной…

Тип релиза: BDRip 1080p
Контейнер: MKV
Видео кодек: x264
Аудио кодек: AC3
Видео: AVC / High@L4.1 / 2 pass / 23,976 fps / 1920x1080p / 12,5 Mbps / 0.251 [Русский видеоряд]
Аудио 1: AC3 / 5.1 ch / 640 kbps / Русский дубляж BD RUS
Аудио 2: AC3 / 5.1 ch / 640 kbps / Английский BD RUS
Субтитры: [softsub SRT]
Русские Full BD RUS
Дополнительно: Сохранены оригинальные чаптеры как на Blu-ray
Рип от: Killbrain


Раздача от:











Общее
Уникальный идентификатор : 249822773312857131456473262081114880902 (0xBBF21DB19B41564082ED78580583BB86)
Полное имя : F:Скачка торрентLas.aventuras.de.Tadeo.Jones.2012.BDRip1080p(Killbrain).mkv
Формат : Matroska
Версия формата : Version 4 / Version 2
Размер файла : 8,85 Гбайт
Продолжительность : 1 ч. 31 м.
Общий поток : 13,8 Мбит/сек
Название фильма : Las aventuras de Tadeo Jones (2012) by Killbrain
Дата кодирования : UTC 2010-02-22 21:41:31
Программа кодирования : mkvmerge v5.9.0 ('On The Loose') built on Dec 9 2012 15:37:01
Библиотека кодирования : libebml v1.3.0 + libmatroska v1.4.0

Видео
Идентификатор : 1
Формат : AVC
Формат/Информация : Advanced Video Codec
Профиль формата : High@L4.1
Параметр CABAC формата : Да
Параметр ReFrames формата : 4 кадра
Идентификатор кодека : V_MPEG4/ISO/AVC
Продолжительность : 1 ч. 31 м.
Битрейт : 12,5 Мбит/сек
Ширина : 1920 пикселей
Высота : 1080 пикселей
Соотношение сторон : 16:9
Режим частоты кадров : Постоянный
Частота кадров : 23,976 кадра/сек
Цветовое пространство : YUV
Субдискретизация насыщенности : 4:2:0
Битовая глубина : 8 бит
Тип развёртки : Прогрессивная
Бит/(Пиксели*Кадры) : 0.251
Размер потока : 7,85 Гбайт (89%)
Заголовок : Las aventuras de Tadeo Jones (2012)
Библиотека кодирования : x264 core 128 r2216 198a7ea
Настройки программы : cabac=1 / ref=4 / deblock=1:-3:-3 / analyse=0x3:0x113 / me=umh / subme=10 / psy=1 / psy_rd=1.00:0.40 / mixed_ref=1 / me_range=16 / chroma_me=1 / trellis=2 / 8x8dct=1 / cqm=0 / deadzone=21,11 / fast_pskip=1 / chroma_qp_offset=-4 / threads=3 / lookahead_threads=1 / sliced_threads=0 / nr=0 / decimate=0 / interlaced=0 / bluray_compat=0 / constrained_intra=0 / bframes=7 / b_pyramid=2 / b_adapt=2 / b_bias=0 / direct=3 / weightb=1 / open_gop=0 / weightp=2 / keyint=240 / keyint_min=23 / scenecut=40 / intra_refresh=0 / rc_lookahead=60 / rc=2pass / mbtree=0 / bitrate=12500 / ratetol=1.0 / qcomp=0.65 / qpmin=0 / qpmax=69 / qpstep=4 / cplxblur=20.0 / qblur=0.5 / vbv_maxrate=40000 / vbv_bufsize=40000 / nal_hrd=none / ip_ratio=1.40 / pb_ratio=1.30 / aq=1:0.70
Язык : Spanish
Default : Да
Forced : Нет

Аудио #1
Идентификатор : 2
Формат : AC-3
Формат/Информация : Audio Coding 3
Расширение режима : CM (complete main)
Параметр Endianness формата : Big
Идентификатор кодека : A_AC3
Продолжительность : 1 ч. 31 м.
Вид битрейта : Постоянный
Битрейт : 640 Кбит/сек
Каналы : 6 каналов
Расположение каналов : Front: L C R, Side: L R, LFE
Частота : 48,0 КГц
Битовая глубина : 16 бит
Метод сжатия : С потерями
Размер потока : 421 Мбайт (5%)
Заголовок : AC3 / 5.1 ch / 640 kbps / Русский дубляж BD RUS
Язык : Russian
Default : Да
Forced : Нет

Аудио #2
Идентификатор : 3
Формат : AC-3
Формат/Информация : Audio Coding 3
Расширение режима : CM (complete main)
Параметр Endianness формата : Big
Идентификатор кодека : A_AC3
Продолжительность : 1 ч. 31 м.
Вид битрейта : Постоянный
Битрейт : 640 Кбит/сек
Каналы : 6 каналов
Расположение каналов : Front: L C R, Side: L R, LFE
Частота : 48,0 КГц
Битовая глубина : 16 бит
Метод сжатия : С потерями
Размер потока : 421 Мбайт (5%)
Заголовок : AC3 / 5.1 ch / 640 kbps / Английский BD RUS
Язык : English
Default : Нет
Forced : Нет

Текст
Идентификатор : 4
Формат : UTF-8
Идентификатор кодека : S_TEXT/UTF8
Идентификатор кодека/Информация : UTF-8 Plain Text
Заголовок : Full BD RUS
Язык : Russian
Default : Нет
Forced : Нет

Меню
00:00:00.000 : :Chapter 01
00:08:10.615 : :Chapter 02
00:15:26.634 : :Chapter 03
00:24:34.723 : :Chapter 04
00:31:40.148 : :Chapter 05
00:39:09.555 : :Chapter 06
00:44:20.908 : :Chapter 07
00:51:22.496 : :Chapter 08
00:58:46.773 : :Chapter 09
01:04:54.390 : :Chapter 10
01:14:49.610 : :Chapter 11
01:26:19.799 : :Chapter 12
01:31:51.047 : :Chapter 13




   Похожие торренты   Торрент   Размер 
В этой теме нет новых непрочитанных сообщений. Тэд Джонс и Затерянный город / Las aventuras de Tadeo Jones (2012) BDRip 1080p от Youtracker | 3D-Video

35 | 3

9.04 ГБ

В этой теме нет новых непрочитанных сообщений. Тэд Джонс и Затерянный город / Las aventuras de Tadeo Jones (2012) Blu-ray 1080p от HDCLUB и Youtracker | D | 3D Video

0 | 1

25.49 ГБ

В этой теме нет новых непрочитанных сообщений. Тэд Джонс и Затерянный город / Las aventuras de Tadeo Jones (2012) BDRip от Youtracker | D | лицензия

20 | 6

744.9 МБ

В этой теме нет новых непрочитанных сообщений. Тэд Джонс и Затерянный город / Las aventuras de Tadeo Jones (2012) BDRip-AVC от Youtracker | D | лицензия

17 | 1

1.74 ГБ

В этой теме нет новых непрочитанных сообщений. Тэд Джонс и Затерянный город / Las aventuras de Tadeo Jones (2012) BDRip от Youtracker | D | лицензия

46 | 3

1.74 ГБ

В этой теме нет новых непрочитанных сообщений. Тэд Джонс и Затерянный город / Las aventuras de Tadeo Jones (2012) BDRip 1080p

4 | 5

4.37 ГБ

В этой теме нет новых непрочитанных сообщений. Тэд Джонс и Затерянный город 2D / Las aventuras de Tadeo Jones (2012) DVD5 от Youtracker | D | сжатый

5 | 2

3.39 ГБ




Вы не можете начинать темы
Вы не можете отвечать на сообщения
Вы не можете редактировать свои сообщения
Вы не можете удалять свои сообщения
Вы не можете добавлять вложения

Перейти:  
Для Мосгорсуда, Роскомнадзора и рекламодателей: mosgorsud-torrent[собачка]yandex.ru
 Вход
ppkBB3cker v.2 © 2008-2014 @ PPK
[ Time : 0.556s | 15 Queries | GZIP : On ]

Торрент трекер RUTOR.IN, Не можете зайти на rutor.org? Какой новый адрес рутор? Какое зеркало рутор? Не работает rutor.org и зеркала? Тогда наш торрент специально для вас. Rutor.in неофициальное зеркало rutor. В случае если у Вас заблокирован rutor или вдруг Вы не можете на него зайти, то Вы без труда сможете скачать бесплатно и без рекламы последние новинки кино, игр, сериалов и прочего у нас, на Rutor.in. Не нужно использовать прокси, чтобы зайти на рутор, достаточно воспользоваться нашим ресурсом. Все новые фильмы, игры, сериалы, книги и музыка за 2013 и 2014 годы через торрент бесплатно. Скачивайте фильмы в хорошем качестве, игры для пк, xbox, playstation без регистрации. У нас вы найдете новые Зарубежные сериалы и Русские сериалы 2013, 2014, 2015 годов. Оставайтесь с нами, качайте любимые фильмы, игры, сериалы, книги и музыку.