img image001 image001 image001 image001 image001 image001 image001 image001 image001 image001 image001 image001 image001 image001 image001

Planets Sun Sun Sun
Статистика раздачи
Автор: Снежана | Размер: 9.99 ГБ | Добавлен: 27 июл 2013
Раздают: 13    Качают: 10
Скачать торрент
Скачать торрент
Описание торрента

СообщениеДобавлено: 27 июл 2013 

#77

Информация о фильме
Название: Маша и Медведь
Год выхода: 2009-2012
Жанр: мультфильм, короткометражный, комедия, семейный
Режиссер: Олег Ужинов, Денис Червяцов
В ролях: Алина Кукушкина, Эдуард Назаров, Борис Кутневич

О фильме:
Сериал рассчитан в первую очередь на детскую аудиторию (от 3 до 9 лет), и поэтому форма изложения материала будет адаптирована для детского восприятия, но не будет чрезмерно упрощенной. Сериал планируется действительно семейным, интересным для всех возрастов, чтобы взрослые могли посмеяться над приключениями Маши и Медведя, вспомнив собственное детство. Несмотря на то, что персонажи для зрителя являются знакомыми с детства по русской народной сказке, предполагается некоторая адаптация зрительского восприятия к новой трактовке старой истории - персонажи живут в наше время, их быт, хоть и абсурден, но современен, их отношения - это отношения не девочки и зверя, а ребенка и взрослого, маленького человечка и огромного мира.



Страна: Россия, cтудия "Анимаккорд"
Продолжительность: 25 по 7х8 минут
Перевод: Оригинал

Файл
Кодек: H264
Качество: BDRip 1080p (источник: Blu-ray Remux)
Видео: 1920x1080, 5804 Kbps, 23,976 fps
Звук: 48 kHz, AC3, 6c, 640 kbps
Звук: 48 kHz, DTS, 6c, 1509 kbps
Субтитры: Нет

Семпл



У всех серий одинаковые настройки
Общее
Уникальный идентификатор : 218536464833280638810613824176505638509 (0xA46897978E0E4511A4F298A190524E6D)
Формат : Matroska
Версия формата : Version 4 / Version 2
Размер файла : 411 Мбайт
Продолжительность : 7 м. 12 с.
Общий поток : 7958 Кбит/сек
Дата кодирования : UTC 2013-02-07 17:04:51
Программа кодирования : mkvmerge v6.0.0 ('Coming Up For Air') built on Jan 20 2013 09:52:00
Библиотека кодирования : libebml v1.3.0 + libmatroska v1.4.0

Видео
Идентификатор : 1
Формат : AVC
Формат/Информация : Advanced Video Codec
Профиль формата : High@L4.1
Параметр CABAC формата : Да
Параметр ReFrames формата : 4 кадра
Идентификатор кодека : V_MPEG4/ISO/AVC
Продолжительность : 7 м. 12 с.
Битрейт : 5804 Кбит/сек
Ширина : 1920 пикселей
Высота : 1080 пикселей
Соотношение сторон : 16:9
Режим частоты кадров : Постоянный
Частота кадров : 24,000 кадра/сек
Цветовое пространство : YUV
Субдискретизация насыщенности : 4:2:0
Битовая глубина : 8 бит
Тип развёртки : Прогрессивная
Бит/(Пиксели*Кадры) : 0.117
Размер потока : 292 Мбайт (71%)
Библиотека кодирования : x264 core 125 r2208 d9d2288
Настройки программы : cabac=1 / ref=4 / deblock=1:0:0 / analyse=0x3:0x133 / me=umh / subme=11 / psy=1 / psy_rd=1.00:0.50 / mixed_ref=1 / me_range=32 / chroma_me=1 / trellis=2 / 8x8dct=1 / cqm=0 / deadzone=21,11 / fast_pskip=1 / chroma_qp_offset=-3 / threads=12 / lookahead_threads=2 / sliced_threads=0 / slices=2 / nr=0 / decimate=1 / interlaced=0 / bluray_compat=0 / constrained_intra=0 / bframes=3 / b_pyramid=2 / b_adapt=2 / b_bias=0 / direct=3 / weightb=1 / open_gop=0 / weightp=2 / keyint=250 / keyint_min=24 / scenecut=40 / intra_refresh=0 / rc_lookahead=70 / rc=2pass / mbtree=1 / bitrate=5804 / ratetol=1.0 / qcomp=0.62 / qpmin=1 / qpmax=69 / qpstep=4 / cplxblur=20.0 / qblur=0.5 / ip_ratio=1.40 / aq=2:1.00
Язык : English
Default : Да
Forced : Нет

Аудио #1
Идентификатор : 2
Формат : AC-3
Формат/Информация : Audio Coding 3
Расширение режима : CM (complete main)
Параметр Endianness формата : Big
Идентификатор кодека : A_AC3
Продолжительность : 7 м. 12 с.
Вид битрейта : Постоянный
Битрейт : 640 Кбит/сек
Каналы : 6 каналов
Расположение каналов : Front: L C R, Side: L R, LFE
Частота : 48,0 КГц
Битовая глубина : 16 бит
Метод сжатия : С потерями
Размер потока : 33,0 Мбайт (8%)
Заголовок : Оригинал
Язык : Russian
Default : Да
Forced : Нет

Аудио #2
Идентификатор : 3
Формат : DTS
Формат/Информация : Digital Theater Systems
Режим : 16
Параметр Endianness формата : Big
Идентификатор кодека : A_DTS
Продолжительность : 7 м. 12 с.
Вид битрейта : Постоянный
Битрейт : 1509 Кбит/сек
Каналы : 6 каналов
Расположение каналов : Front: L C R, Side: L R, LFE
Частота : 48,0 КГц
Битовая глубина : 16 бит
Метод сжатия : С потерями
Размер потока : 77,8 Мбайт (19%)
Заголовок : Оригинал DTS
Язык : Russian
Default : Нет
Forced : Нет
01. Первая встреча!
02. До весны не будить!
03. Раз, два, три! Ёлочка, гори!
04. Весна пришла!
05. Ловись рыбка!
06. Следы невиданных зверей
07. С волками жить...
08. Позвони мне, позвони!
09. День варенья
10. Праздник на льду
11. Первый раз в первый класс
12. Граница на замке
13. Кто не спрятался, я не виноват
14. Лыжню!
15. Будьте здоровы!
16. Маша + каша
17. Дальний родственник
18. Большая стирка
19. Репетиция оркестра
20. Усатый полосатый
21. Один дома
22. Дышите! Не дышите!
23. Подкидыш
24. Приятного аппетита
25. Фокус-покус



   Похожие торренты   Торрент   Размер 
В этой теме нет новых непрочитанных сообщений. Маша и Медведь (01-25) (2009-2012) BDRip 1080p

0 | 2

8.09 ГБ

В этой теме нет новых непрочитанных сообщений. Маша и медведь+Машкини срашилки. / Маша и медведь+Машкины страшилки [1-61, 1-17] (2009-2017) BDRip, WEB-DLRip

30 | 18

12.62 ГБ

В этой теме нет новых непрочитанных сообщений. Маша и Медведь [01-31] (2009-2013) BDRip 1080p от Freeisland

62 | 39

13.78 ГБ

В этой теме нет новых непрочитанных сообщений. Маша и Медведь [01-29] (2009-2012) BDRip-AVC от potroks

0 | 2

3.24 ГБ

В этой теме нет новых непрочитанных сообщений. Маша и Медведь [01-27] (2009-2012) BDRip-AVC от potroks

40 | 3

3.04 ГБ

В этой теме нет новых непрочитанных сообщений. Маша и Медведь [01-27] (2009-2012) BDRip 720p

9 | 3

8.05 ГБ

В этой теме нет новых непрочитанных сообщений. Маша и Медведь [01-29] (2009-2012) BDRip от HQ-ViDEO

241 | 102

3.68 ГБ




Вы не можете начинать темы
Вы не можете отвечать на сообщения
Вы не можете редактировать свои сообщения
Вы не можете удалять свои сообщения
Вы не можете добавлять вложения

Перейти:  
Для Мосгорсуда, Роскомнадзора и рекламодателей: mosgorsud-torrent[собачка]yandex.ru
 Вход
ppkBB3cker v.2 © 2008-2014 @ PPK
[ Time : 0.027s | 15 Queries | GZIP : Off ]

cron