img image001 image001 image001 image001 image001 image001 image001 image001 image001 image001 image001 image001 image001 image001 image001

Planets Sun Sun Sun
Статистика раздачи
Автор: Снежана | Размер: 3.01 ГБ | Добавлен: 28 июл 2013
Раздают: 49    Качают: 3
Скачать торрент
Скачать торрент
Описание торрента

СообщениеДобавлено: 28 июл 2013 

#77

Информация о фильме
Название: Золушка
Оригинальное название: Cinderella
Год выхода: 1950
Жанр: Мюзикл, фэнтези, мелодрама, семейный
Режиссер: Клайд Джероними, Уилфред Джексон, Хэмильтон Ласки

О фильме:
Золушка — бедная сиротка, которую злая мачеха и ее вздорные дочки, заставляют тяжко работать с утра до ночи. Она так хочет попасть на королевский бал. На помощь бедняжке приходит Добрая фея! Силой волшебства она наделяет Золушку роскошной каретой, чудесным платьем и необыкновенными хрустальными башмачками.

Страна: США, Walt Disney Pictures
Продолжительность: 01:14:28
Перевод: Дублированный, профессиональный многоголосый, авторский одноголосый
Субтитры: Русские, украинские, английские
Дата релиза: 08.02.2013

Файл
Кодек: H.264
Качество: BDRip-AVC
Видео: MPEG-4 AVC, 1499 Кбит/с, 768x576
Звук:
Аудио 1: Русский (AC3, 6 ch, 448 Кбит/с) - Дублированный | Студия Пифагор | BD CEE
Аудио 2: Украинский (AC3, 6 ch, 448 Кбит/с) - Дублированный
Аудио 3: Русский (AC3, 6 ch, 448 Кбит/с) - Авторский одноголосый | Алексей Михалёв (поздний)
Аудио 4: Русский (AC3, 1 ch, 192 Кбит/с) - Авторский одноголосый | Алексей Михалёв (ранний) | VHS
Аудио 5: Русский (AC3, 6 ch, 448 Кбит/с) - Одноголосый | Сергей Белов (ранний текст Михалёва)
Аудио 6: Русский (AC3, 2 ch, 192 Кбит/с) - Авторский одноголосый | Андрей Гаврилов
Аудио 7: Русский (AC3, 2 ch, 192 Кбит/с) - Авторский одноголосый | Юрий Живов
Аудио 8: Русский (AC3, 6 ch, 448 Кбит/с) - Профессиональный многоголосый | Superbit С.Р.И.
Аудио 9: Русский (AC3, 6 ch, 448 Кбит/с) - Профессиональный многоголосый | DVD-Магия
Аудио 10: Русский (AC3, 2 ch, 192 Кбит/с) - Профессиональный многоголосый | ИДДК
Аудио 11: Русский (AC3, 2 ch, 192 Кбит/с) - Профессиональный многоголосый | New Dream Media
Аудио 12: Русский (AC3, 2 ch, 192 Кбит/с) - Профессиональный многоголосый
Аудио 13: Английский (AC3, 6 ch, 448 Кбит/с)

Общее
Уникальный идентификатор : 191400627615890293637431016546469970629 (0x8FFE6B85C66A13FCBCBAED81139C82C5)
Полное имя : D:2Zolushka.1950.x264.BDRip.(AVC).ExKinoRay.mkv
Формат : Matroska
Версия формата : Version 2
Размер файла : 3,01 Гбайт
Продолжительность : 1 ч. 14 м.
Общий поток : 5793 Кбит/сек
Название фильма : Zolushka.1950.x264.BDRip.(AVC).ExKinoRay
Дата кодирования : UTC 2013-02-07 19:36:20
Программа кодирования : mkvmerge v4.0.0 ('The Stars were mine') сборка от Jun 6 2010 16:18:42
Библиотека кодирования : libebml v1.0.0 + libmatroska v1.0.0

Видео
Идентификатор : 1
Формат : AVC
Формат/Информация : Advanced Video Codec
Профиль формата : High@L4.1
Параметр CABAC формата : Да
Параметр ReFrames формата : 8 кадров
Идентификатор кодека : V_MPEG4/ISO/AVC
Продолжительность : 1 ч. 14 м.
Битрейт : 1389 Кбит/сек
Номинальный битрейт : 1499 Кбит/сек
Ширина : 768 пикселей
Высота : 576 пикселей
Соотношение сторон : 4:3
Частота кадров : 23,976 кадра/сек
Цветовое пространство : YUV
Субдискретизация насыщенности : 4:2:0
Битовая глубина : 8 бит
Тип развёртки : Прогрессивная
Бит/(Пиксели*Кадры) : 0.131
Размер потока : 740 Мбайт (24%)
Заголовок : Rip by Enigma-Vladislav71
Библиотека кодирования : x264 core 129 r2245 bc13772
Настройки программы : cabac=1 / ref=8 / deblock=1:-2:-2 / analyse=0x3:0x133 / me=umh / subme=11 / psy=1 / psy_rd=1.00:0.00 / mixed_ref=1 / me_range=48 / chroma_me=1 / trellis=2 / 8x8dct=1 / cqm=0 / deadzone=21,11 / fast_pskip=0 / chroma_qp_offset=-2 / threads=3 / lookahead_threads=1 / sliced_threads=0 / nr=0 / decimate=0 / interlaced=0 / bluray_compat=0 / constrained_intra=0 / bframes=8 / b_pyramid=2 / b_adapt=2 / b_bias=0 / direct=3 / weightb=1 / open_gop=0 / weightp=2 / keyint=240 / keyint_min=23 / scenecut=40 / intra_refresh=0 / rc_lookahead=40 / rc=2pass / mbtree=1 / bitrate=1499 / ratetol=1.0 / qcomp=0.60 / qpmin=10 / qpmax=51 / qpstep=4 / cplxblur=20.0 / qblur=0.5 / ip_ratio=1.40 / aq=2:1.00
Язык : English

Аудио #1
Идентификатор : 2
Формат : AC-3
Формат/Информация : Audio Coding 3
Расширение режима : CM (complete main)
Идентификатор кодека : A_AC3
Продолжительность : 1 ч. 14 м.
Вид битрейта : Постоянный
Битрейт : 448 Кбит/сек
Каналы : 6 каналов
Расположение каналов : Front: L C R, Side: L R, LFE
Частота : 48,0 КГц
Битовая глубина : 16 бит
Метод сжатия : С потерями
Размер потока : 239 Мбайт (8%)
Заголовок : (дублированный) Студия Пифагор | BD CEE
Язык : Russian

Аудио #2
Идентификатор : 3
Формат : AC-3
Формат/Информация : Audio Coding 3
Расширение режима : CM (complete main)
Идентификатор кодека : A_AC3
Продолжительность : 1 ч. 14 м.
Вид битрейта : Постоянный
Битрейт : 448 Кбит/сек
Каналы : 6 каналов
Расположение каналов : Front: L C R, Side: L R, LFE
Частота : 48,0 КГц
Битовая глубина : 16 бит
Метод сжатия : С потерями
Размер потока : 239 Мбайт (8%)
Заголовок : (дублированный) украинский

Аудио #3
Идентификатор : 4
Формат : AC-3
Формат/Информация : Audio Coding 3
Расширение режима : CM (complete main)
Идентификатор кодека : A_AC3
Продолжительность : 1 ч. 14 м.
Вид битрейта : Постоянный
Битрейт : 448 Кбит/сек
Каналы : 6 каналов
Расположение каналов : Front: L C R, Side: L R, LFE
Частота : 48,0 КГц
Битовая глубина : 16 бит
Метод сжатия : С потерями
Размер потока : 239 Мбайт (8%)
Заголовок : Алексей Михалёв (поздний)
Язык : Russian

Аудио #4
Идентификатор : 5
Формат : AC-3
Формат/Информация : Audio Coding 3
Расширение режима : CM (complete main)
Идентификатор кодека : A_AC3
Продолжительность : 1 ч. 14 м.
Вид битрейта : Постоянный
Битрейт : 192 Кбит/сек
Каналы : 1 канал
Расположение каналов : Front: C
Частота : 48,0 КГц
Битовая глубина : 16 бит
Метод сжатия : С потерями
Размер потока : 102 Мбайт (3%)
Заголовок : Алексей Михалёв (ранний) | VHS
Язык : Russian

Аудио #5
Идентификатор : 6
Формат : AC-3
Формат/Информация : Audio Coding 3
Расширение режима : CM (complete main)
Идентификатор кодека : A_AC3
Продолжительность : 1 ч. 14 м.
Вид битрейта : Постоянный
Битрейт : 448 Кбит/сек
Каналы : 6 каналов
Расположение каналов : Front: L C R, Side: L R, LFE
Частота : 48,0 КГц
Битовая глубина : 16 бит
Метод сжатия : С потерями
Размер потока : 239 Мбайт (8%)
Заголовок : Сергей Белов (ранний текст Михалёва)
Язык : Russian

Аудио #6
Идентификатор : 7
Формат : AC-3
Формат/Информация : Audio Coding 3
Расширение режима : CM (complete main)
Идентификатор кодека : A_AC3
Продолжительность : 1 ч. 14 м.
Вид битрейта : Постоянный
Битрейт : 192 Кбит/сек
Каналы : 2 канала
Расположение каналов : Front: L R
Частота : 48,0 КГц
Битовая глубина : 16 бит
Метод сжатия : С потерями
Размер потока : 102 Мбайт (3%)
Заголовок : Андрей Гаврилов
Язык : Russian

Аудио #7
Идентификатор : 8
Формат : AC-3
Формат/Информация : Audio Coding 3
Расширение режима : CM (complete main)
Идентификатор кодека : A_AC3
Продолжительность : 1 ч. 14 м.
Вид битрейта : Постоянный
Битрейт : 192 Кбит/сек
Каналы : 2 канала
Расположение каналов : Front: L R
Частота : 48,0 КГц
Битовая глубина : 16 бит
Метод сжатия : С потерями
Размер потока : 102 Мбайт (3%)
Заголовок : Юрий Живов
Язык : Russian

Аудио #8
Идентификатор : 9
Формат : AC-3
Формат/Информация : Audio Coding 3
Расширение режима : CM (complete main)
Идентификатор кодека : A_AC3
Продолжительность : 1 ч. 14 м.
Вид битрейта : Постоянный
Битрейт : 448 Кбит/сек
Каналы : 6 каналов
Расположение каналов : Front: L C R, Side: L R, LFE
Частота : 48,0 КГц
Битовая глубина : 16 бит
Метод сжатия : С потерями
Размер потока : 239 Мбайт (8%)
Заголовок : многоголосый | Superbit С.Р.И.
Язык : Russian

Аудио #9
Идентификатор : 10
Формат : AC-3
Формат/Информация : Audio Coding 3
Расширение режима : CM (complete main)
Идентификатор кодека : A_AC3
Продолжительность : 1 ч. 14 м.
Вид битрейта : Постоянный
Битрейт : 448 Кбит/сек
Каналы : 6 каналов
Расположение каналов : Front: L C R, Side: L R, LFE
Частота : 48,0 КГц
Битовая глубина : 16 бит
Метод сжатия : С потерями
Размер потока : 239 Мбайт (8%)
Заголовок : многоголосый | DVD-Магия
Язык : Russian

Аудио #10
Идентификатор : 11
Формат : AC-3
Формат/Информация : Audio Coding 3
Расширение режима : CM (complete main)
Идентификатор кодека : A_AC3
Продолжительность : 1 ч. 14 м.
Вид битрейта : Постоянный
Битрейт : 192 Кбит/сек
Каналы : 2 канала
Расположение каналов : Front: L R
Частота : 48,0 КГц
Битовая глубина : 16 бит
Метод сжатия : С потерями
Размер потока : 102 Мбайт (3%)
Заголовок : многоголосый | ИДДК
Язык : Russian

Аудио #11
Идентификатор : 12
Формат : AC-3
Формат/Информация : Audio Coding 3
Расширение режима : CM (complete main)
Идентификатор кодека : A_AC3
Продолжительность : 1 ч. 14 м.
Вид битрейта : Постоянный
Битрейт : 192 Кбит/сек
Каналы : 2 канала
Расположение каналов : Front: L R
Частота : 48,0 КГц
Битовая глубина : 16 бит
Метод сжатия : С потерями
Размер потока : 102 Мбайт (3%)
Заголовок : многоголосый | New Dream Media
Язык : Russian

Аудио #12
Идентификатор : 13
Формат : AC-3
Формат/Информация : Audio Coding 3
Расширение режима : CM (complete main)
Идентификатор кодека : A_AC3
Продолжительность : 1 ч. 14 м.
Вид битрейта : Постоянный
Битрейт : 192 Кбит/сек
Каналы : 2 канала
Расположение каналов : Front: L R
Частота : 48,0 КГц
Битовая глубина : 16 бит
Метод сжатия : С потерями
Размер потока : 102 Мбайт (3%)
Заголовок : многоголосый
Язык : Russian

Аудио #13
Идентификатор : 14
Формат : AC-3
Формат/Информация : Audio Coding 3
Расширение режима : CM (complete main)
Идентификатор кодека : A_AC3
Продолжительность : 1 ч. 14 м.
Вид битрейта : Постоянный
Битрейт : 448 Кбит/сек
Каналы : 6 каналов
Расположение каналов : Front: L C R, Side: L R, LFE
Частота : 48,0 КГц
Битовая глубина : 16 бит
Метод сжатия : С потерями
Размер потока : 239 Мбайт (8%)
Заголовок : английский
Язык : English

Текст #1
Идентификатор : 15
Формат : UTF-8
Идентификатор кодека : S_TEXT/UTF8
Идентификатор кодека/Информация : UTF-8 Plain Text
Язык : Russian

Текст #2
Идентификатор : 16
Формат : UTF-8
Идентификатор кодека : S_TEXT/UTF8
Идентификатор кодека/Информация : UTF-8 Plain Text
Заголовок : украинский

Текст #3
Идентификатор : 17
Формат : UTF-8
Идентификатор кодека : S_TEXT/UTF8
Идентификатор кодека/Информация : UTF-8 Plain Text
Язык : English

Меню
00:00:00.000 : en:Chapter 01
00:01:23.166 : en:Chapter 02
00:04:20.718 : en:Chapter 03
00:07:37.415 : en:Chapter 04
00:10:15.239 : en:Chapter 05
00:13:29.141 : en:Chapter 06
00:17:39.308 : en:Chapter 07
00:22:07.826 : en:Chapter 08
00:23:32.953 : en:Chapter 09
00:26:05.730 : en:Chapter 10
00:27:55.173 : en:Chapter 11
00:31:00.149 : en:Chapter 12
00:33:32.510 : en:Chapter 13
00:36:49.040 : en:Chapter 14
00:38:55.708 : en:Chapter 15
00:42:02.102 : en:Chapter 16
00:44:11.982 : en:Chapter 17
00:48:23.108 : en:Chapter 18
00:52:54.171 : en:Chapter 19
00:56:57.122 : en:Chapter 20
01:00:42.472 : en:Chapter 21
01:04:11.097 : en:Chapter 22
01:07:34.800 : en:Chapter 23
01:13:05.714 : en:Chapter 24
01:14:28.547 : en:Chapter 25


Семпл


Релиз от:

Авторы релиза:



   Похожие торренты   Торрент   Размер 
В этой теме нет новых непрочитанных сообщений. Золушка / Cinderella (1950) BDRip от ExKinoRay | D, P, A1

88 | 7

2.94 ГБ

В этой теме нет новых непрочитанных сообщений. Золушка / Cinderella (1950) BDRip от HQCLUB

1463 | 44

1.45 ГБ

В этой теме нет новых непрочитанных сообщений. Золушка / Cinderella (1950) BDRip от MediaClub | КПК

595 | 27

339.16 МБ

В этой теме нет новых непрочитанных сообщений. Золушка / Cinderella (1950) BDRip 1080p от R.G. HD-Films | 60 fps

92 | 19

6.75 ГБ

В этой теме нет новых непрочитанных сообщений. Золушка / Cinderella (1950) BDRip 720p от HQ-ViDEO

676 | 24

2.3 ГБ

В этой теме нет новых непрочитанных сообщений. Золушка: Трилогия / Cinderella: Trilogy (1950-2007) BDRip 1080p

517 | 64

13.14 ГБ

В этой теме нет новых непрочитанных сообщений. Золушка / Cinderella (1950) BDRip 720p от Leonardo and Scarabey | iPad

416 | 30

641.8 МБ




Вы не можете начинать темы
Вы не можете отвечать на сообщения
Вы не можете редактировать свои сообщения
Вы не можете удалять свои сообщения
Вы не можете добавлять вложения

Перейти:  
Для Мосгорсуда, Роскомнадзора и рекламодателей: mosgorsud-torrent[собачка]yandex.ru
 Вход
ppkBB3cker v.2 © 2008-2014 @ PPK
[ Time : 0.083s | 15 Queries | GZIP : Off ]

Торрент трекер RUTOR.IN, Не можете зайти на rutor.org? Какой новый адрес рутор? Какое зеркало рутор? Не работает rutor.org и зеркала? Тогда наш торрент специально для вас. Rutor.in неофициальное зеркало rutor. В случае если у Вас заблокирован rutor или вдруг Вы не можете на него зайти, то Вы без труда сможете скачать бесплатно и без рекламы последние новинки кино, игр, сериалов и прочего у нас, на Rutor.in. Не нужно использовать прокси, чтобы зайти на рутор, достаточно воспользоваться нашим ресурсом. Все новые фильмы, игры, сериалы, книги и музыка за 2013 и 2014 годы через торрент бесплатно. Скачивайте фильмы в хорошем качестве, игры для пк, xbox, playstation без регистрации. У нас вы найдете новые Зарубежные сериалы и Русские сериалы 2013, 2014, 2015 годов. Оставайтесь с нами, качайте любимые фильмы, игры, сериалы, книги и музыку.
cron