img image001 image001 image001 image001 image001 image001 image001 image001 image001 image001 image001 image001 image001 image001 image001

Planets Sun Sun Sun
Статистика раздачи
Автор: Снежана | Размер: 744.74 МБ | Добавлен: 27 июл 2013
Раздают: 113    Качают: 12
Скачать торрент
Скачать торрент
Описание торрента

СообщениеДобавлено: 27 июл 2013 

#77
Год выпуска: 2011
Страна: США
Жанр: мультфильм, короткометражка
Продолжительность: 00:25:33

Перевод: 1. Профессиональный (дублированный), 2. Профессиональный (многоголосый, закадровый), 3. Профессиональный (дублированный) [Украинский]
Cубтитры: русские, украинские, английские, испанские

Режиссер: Карен Дишер / Karen Disher

В ролях: Джон Легуизамо (Sid, озвучка), Шонн Уильям Скотт (Crash, озвучка), ТиДжей Миллер (Prancer, озвучка), Кьяра Браво (Peaches, озвучка), Куин Латифа (Ellie, озвучка), Дэнис Лири (Diego, озвучка), Рэй Романо (Manny, озвучка), Джошуа Раш (Actor, озвучка), Крис Уэдж (Scrat, озвучка)

Описание: Когда Сид случайно разрушает рождественский камень, Мэнни говорит ему, что Сид попал в черный список Санты, и что ленивцу придется лететь на северный полюс просить извинения у Санты. На северном полюсе Сид хотел все сделать как лучше, но только усугубил ситуацию. Теперь дело за Мэнни и компанией, только они объединившись сохранят Рождество для всего мира!





Исходник: Blu-ray 1080p
Качество: BDRip-AVC
Формат: MKV

Видео: 1024x576 (16:9), 23,976 fps, H264 ~ 2600 kbps avg, 0.184 bit/pixel
Аудио 1: Russian; 48,0 Кгц, AC3; 384 Kbps; CBR 6 ch; / Дубляж
Аудио 2: Russian; 48,0 Кгц, AC3; 256 Kbps; CBR 2 ch; / MVO
Аудио 3: Ukrainian; 48,0 Кгц, AC3; 384 Kbps; CBR 6 ch; / Дубляж
Аудио 4: English; 48,0 Кгц, AC3; 448 Kbps CBR; 6 ch;
Субтитры 1: Russian
Субтитры 2: Ukrainian
Субтитры 3: English
Субтитры 4: English / SDH
Субтитры 5: Spanish
Присутствуют оригинальные чапторы
Общее
Полное имя : Lednikovyj.period.Gigantskoe.Rozhdestvo.2011Lednikovyj.period.Gigantskoe.Rozhdestvo.2011.BDRip-AVC.mkv
Формат : Matroska
Версия формата : Version 2
Размер файла : 745 Мбайт
Продолжительность : 25 м.
Общий поток : 4075 Кбит/сек
Название фильма : Lednikovyj.period.Gigantskoe.Rozhdestvo.2011.BDRip-AVC AVP Studio
Дата кодирования : UTC 2012-04-28 08:32:00
Программа кодирования : mkvmerge v5.2.0 ('I can't explain') built on Dec 18 2011 18:12:03
Библиотека кодирования : libebml v1.2.3 + libmatroska v1.3.0

Видео
Идентификатор : 1
Формат : AVC
Формат/Информация : Advanced Video Codec
Профиль формата : High@L4.1
Параметр CABAC формата : Да
Параметр ReFrames формата : 8 кадров
Идентификатор кодека : V_MPEG4/ISO/AVC
Продолжительность : 25 м.
Битрейт : 2600 Кбит/сек
Ширина : 1024 пикселя
Высота : 576 пикселей
Соотношение сторон : 16:9
Частота кадров : 23,976 кадра/сек
Цветовое пространство : YUV
Субдискретизация насыщенности : 4:2:0
Битовая глубина : 8 бит
Тип развёртки : Прогрессивная
Бит/(Пиксели*Кадры) : 0.184
Размер потока : 461 Мбайт (62%)
Заголовок : Источник Blu-ray 1080
Библиотека кодирования : x264 core 119 r2106 07efeb4
Настройки программы : cabac=1 / ref=8 / deblock=1:-2:-2 / analyse=0x3:0x133 / me=umh / subme=9 / psy=1 / psy_rd=1.00:0.10 / mixed_ref=1 / me_range=32 / chroma_me=1 / trellis=2 / 8x8dct=1 / cqm=0 / deadzone=21,11 / fast_pskip=1 / chroma_qp_offset=-3 / threads=3 / sliced_threads=0 / nr=0 / decimate=1 / interlaced=0 / bluray_compat=0 / constrained_intra=0 / bframes=8 / b_pyramid=2 / b_adapt=2 / b_bias=0 / direct=3 / weightb=1 / open_gop=0 / weightp=2 / keyint=250 / keyint_min=23 / scenecut=40 / intra_refresh=0 / rc=2pass / mbtree=0 / bitrate=2600 / ratetol=1.0 / qcomp=0.60 / qpmin=0 / qpmax=69 / qpstep=4 / cplxblur=20.0 / qblur=0.5 / ip_ratio=1.40 / pb_ratio=1.30 / aq=2:0.90
Язык : English
Default : Да
Forced : Нет

Аудио #1
Идентификатор : 2
Формат : AC-3
Формат/Информация : Audio Coding 3
Расширение режима : CM (complete main)
Идентификатор кодека : A_AC3
Продолжительность : 25 м.
Вид битрейта : Постоянный
Битрейт : 384 Кбит/сек
Каналы : 6 каналов
Расположение каналов : Front: L C R, Side: L R, LFE
Частота : 48,0 КГц
Битовая глубина : 16 бит
Метод сжатия : С потерями
Размер потока : 70,2 Мбайт (9%)
Заголовок : Источник Blu-ray 1080 DUB
Язык : Russian
Default : Да
Forced : Нет

Аудио #2
Идентификатор : 3
Формат : AC-3
Формат/Информация : Audio Coding 3
Расширение режима : CM (complete main)
Идентификатор кодека : A_AC3
Продолжительность : 25 м.
Вид битрейта : Постоянный
Битрейт : 256 Кбит/сек
Каналы : 2 канала
Расположение каналов : Front: L R
Частота : 48,0 КГц
Битовая глубина : 16 бит
Метод сжатия : С потерями
Размер потока : 46,8 Мбайт (6%)
Заголовок : Источник Blu-ray 1080 MVO
Язык : Russian
Default : Нет
Forced : Нет

Аудио #3
Идентификатор : 4
Формат : AC-3
Формат/Информация : Audio Coding 3
Расширение режима : CM (complete main)
Идентификатор кодека : A_AC3
Продолжительность : 25 м.
Вид битрейта : Постоянный
Битрейт : 384 Кбит/сек
Каналы : 6 каналов
Расположение каналов : Front: L C R, Side: L R, LFE
Частота : 48,0 КГц
Битовая глубина : 16 бит
Метод сжатия : С потерями
Размер потока : 70,2 Мбайт (9%)
Заголовок : Источник Blu-ray 1080 DUB
Язык : Ukrainian
Default : Нет
Forced : Нет

Аудио #4
Идентификатор : 5
Формат : AC-3
Формат/Информация : Audio Coding 3
Расширение режима : CM (complete main)
Идентификатор кодека : A_AC3
Продолжительность : 25 м.
Вид битрейта : Постоянный
Битрейт : 448 Кбит/сек
Каналы : 6 каналов
Расположение каналов : Front: L C R, Side: L R, LFE
Частота : 48,0 КГц
Битовая глубина : 16 бит
Метод сжатия : С потерями
Размер потока : 81,9 Мбайт (11%)
Заголовок : Источник Blu-ray 1080
Язык : English
Default : Нет
Forced : Нет

Текст #1
Идентификатор : 6
Формат : UTF-8
Идентификатор кодека : S_TEXT/UTF8
Идентификатор кодека/Информация : UTF-8 Plain Text
Заголовок : Источник Blu-ray 1080
Язык : Russian
Default : Нет
Forced : Нет

Текст #2
Идентификатор : 7
Формат : UTF-8
Идентификатор кодека : S_TEXT/UTF8
Идентификатор кодека/Информация : UTF-8 Plain Text
Заголовок : Источник Blu-ray 1080
Язык : Ukrainian
Default : Нет
Forced : Нет

Текст #3
Идентификатор : 8
Формат : UTF-8
Идентификатор кодека : S_TEXT/UTF8
Идентификатор кодека/Информация : UTF-8 Plain Text
Заголовок : Источник Blu-ray 1080
Язык : English
Default : Нет
Forced : Нет

Текст #4
Идентификатор : 9
Формат : ASS
Идентификатор кодека : S_TEXT/ASS
Идентификатор кодека/Информация : Advanced Sub Station Alpha
Метод сжатия : Без потерь
Заголовок : Источник Blu-ray 1080 для глухих
Язык : English
Default : Нет
Forced : Нет

Текст #5
Идентификатор : 10
Формат : ASS
Идентификатор кодека : S_TEXT/ASS
Идентификатор кодека/Информация : Advanced Sub Station Alpha
Метод сжатия : Без потерь
Заголовок : Источник Blu-ray 1080
Язык : Spanish
Default : Нет
Forced : Нет

Меню
00:00:00.000 : en:00:00:00.000
00:01:10.195 : en:00:01:10.195
00:06:00.026 : en:00:06:00.026
00:06:52.454 : en:00:06:52.454
00:10:55.738 : en:00:10:55.738
00:13:41.946 : en:00:13:41.946
00:17:47.858 : en:00:17:47.858
00:21:25.576 : en:00:21:25.576





   Похожие торренты   Торрент   Размер 
В этой теме нет новых непрочитанных сообщений. Ледниковый период: Гигантское Рождество / Ice Age: A Mammoth Christmas (2011) BDRip от Youtracker | D

18 | 3

200.03 МБ

В этой теме нет новых непрочитанных сообщений. Ледниковый период 1-3 + Гигантское Рождество / Ice Age 1-3 + A Mammoth Christmas (2002-2011) 3xDVD9, 2xDVD5 от Youtracker

116 | 6

23.43 ГБ

В этой теме нет новых непрочитанных сообщений. Ледниковый период: Гигантское Рождество / Ice Age: A Mammoth Christmas (2011) DVDRip | КПК от Generalfilm

17 | 3

92.85 МБ

В этой теме нет новых непрочитанных сообщений. Ледниковый период: Гигантское Рождество / Ice Age: A Mammoth Christmas (2011) DVD5

91 | 3

1.99 ГБ

В этой теме нет новых непрочитанных сообщений. Ледниковый период: Гигантское Рождество / Ice Age: A Mammoth Christmas (2011) Blu-Ray | 3D-Video | D

8 | 7

17.17 ГБ

В этой теме нет новых непрочитанных сообщений. Ледниковый период: Гигантское Рождество / Ice Age: A Mammoth Christmas (2011) BDRip от HQ-ViDEO

54 | 5

525.78 МБ

В этой теме нет новых непрочитанных сообщений. Ледниковый период: Гигантское Рождество / Ice Age: A Mammoth Christmas (2011) BDRip 720p от R.G. AVI AVC

9 | 6

741.64 МБ




Вы не можете начинать темы
Вы не можете отвечать на сообщения
Вы не можете редактировать свои сообщения
Вы не можете удалять свои сообщения
Вы не можете добавлять вложения

Перейти:  
Для Мосгорсуда, Роскомнадзора и рекламодателей: mosgorsud-torrent[собачка]yandex.ru
 Вход
ppkBB3cker v.2 © 2008-2014 @ PPK
[ Time : 0.020s | 14 Queries | GZIP : Off ]

Торрент трекер RUTOR.IN, Не можете зайти на rutor.org? Какой новый адрес рутор? Какое зеркало рутор? Не работает rutor.org и зеркала? Тогда наш торрент специально для вас. Rutor.in неофициальное зеркало rutor. В случае если у Вас заблокирован rutor или вдруг Вы не можете на него зайти, то Вы без труда сможете скачать бесплатно и без рекламы последние новинки кино, игр, сериалов и прочего у нас, на Rutor.in. Не нужно использовать прокси, чтобы зайти на рутор, достаточно воспользоваться нашим ресурсом. Все новые фильмы, игры, сериалы, книги и музыка за 2013 и 2014 годы через торрент бесплатно. Скачивайте фильмы в хорошем качестве, игры для пк, xbox, playstation без регистрации. У нас вы найдете новые Зарубежные сериалы и Русские сериалы 2013, 2014, 2015 годов. Оставайтесь с нами, качайте любимые фильмы, игры, сериалы, книги и музыку.