img image001 image001 image001 image001 image001 image001 image001 image001 image001 image001 image001 image001 image001 image001 image001

Planets Sun Sun Sun
Статистика раздачи
Автор: Снежана | Размер: 2.19 ГБ | Добавлен: 27 июл 2013
Раздают: 342    Качают: 25
Скачать торрент
Скачать торрент
Описание торрента

СообщениеДобавлено: 27 июл 2013 

#77

Информация о фильме
Название: Монстры на каникулах
Оригинальное название: Hotel Transylvania
Год выхода: 2012
Жанр: Мультфильм, комедия, семейный
Режиссер: Генндий Тартаковский
В ролях: Адам Сэндлер, Селена Гомес, Энди Сэмберг, Стив Бушеми, Кевин Джеймс, Дэвид Спейд, Фрэн Дрешер, Джон Ловиц, Молли Шеннон, Си-Ло

Сюжет фильма
По иронии судьбы самый молодой представитель легендарной династии охотников на чудовищ и вампиров Саймон Ван Хельсинг влюбляется в дочь Дракулы. Понимая, что они кровные враги, трансильванские «Ромео» и «Джульетта» решают во что бы то ни стало установить мир между чудовищами и людьми.

Выпущено: США, Columbia Pictures, Sony Pictures Animation
Продолжительность: 01:31:31
Перевод: Дублированный
Субтитры: Русские | Полные
Файл
Качество: BDRip 720p (исходник Blu-Ray)
Видео: 1280x692, 3038 Кбит/сек, 23.976 кадр/сек, AVC, x264, High@L4.1, 1.85:1, 0.143 Бит/[Пиксели*Кадры], 2pass
Аудио: AC-3, 384 Кбит/сек, 6 канала(ов), 48,0 КГц
Чаптеры: Есть



Семпл

Релиз Группа | Автор Рипа:


General
Unique ID : 171012271815730376933258577819531655472 (0x80A7C3F8C67CB935AE9FBD2DA46EB930)
Complete name : N:NoLimits-TeamHotel Transylvania.(2012).BDRip.720p.[NoLimits-Team].mkv
Format : Matroska
Format version : Version 4 / Version 2
File size : 2.19 GiB
Duration : 1h 31mn
Overall bit rate : 3 424 Kbps
Movie name : Hotel Transylvania.(2012).BDRip.720p.[NoLimits-Team]
Encoded date : UTC 2013-01-27 05:18:32
Writing application : mkvmerge v6.0.0 ('Coming Up For Air') built on Jan 20 2013 09:52:00
Writing library : libebml v1.3.0 + libmatroska v1.4.0

Video
ID : 1
Format : AVC
Format/Info : Advanced Video Codec
Format profile : High@L4.1
Format settings, CABAC : Yes
Format settings, ReFrames : 9 frames
Codec ID : V_MPEG4/ISO/AVC
Duration : 1h 31mn
Bit rate : 3 038 Kbps
Width : 1 280 pixels
Height : 692 pixels
Display aspect ratio : 1.85:1
Frame rate mode : Constant
Frame rate : 23.976 fps
Color space : YUV
Chroma subsampling : 4:2:0
Bit depth : 8 bits
Scan type : Progressive
Bits/(Pixel*Frame) : 0.143
Stream size : 1.90 GiB (87%)
Title : Монстры на каникулах.(2012).BDRip.720p.[NoLimits-Team]
Writing library : x264 core 129 r2245 bc13772
Encoding settings : cabac=1 / ref=9 / deblock=1:0:0 / analyse=0x3:0x133 / me=umh / subme=11 / psy=1 / psy_rd=1.00:0.00 / mixed_ref=1 / me_range=32 / chroma_me=1 / trellis=2 / 8x8dct=1 / cqm=0 / deadzone=21,11 / fast_pskip=0 / chroma_qp_offset=-2 / threads=9 / lookahead_threads=1 / sliced_threads=0 / nr=0 / decimate=1 / interlaced=0 / bluray_compat=0 / constrained_intra=0 / bframes=5 / b_pyramid=2 / b_adapt=2 / b_bias=0 / direct=3 / weightb=1 / open_gop=0 / weightp=2 / keyint=240 / keyint_min=24 / scenecut=40 / intra_refresh=0 / rc_lookahead=60 / rc=2pass / mbtree=1 / bitrate=3038 / ratetol=1.0 / qcomp=0.60 / qpmin=0 / qpmax=69 / qpstep=4 / cplxblur=20.0 / qblur=0.5 / ip_ratio=1.40 / aq=1:1.00
Language : English
Default : Yes
Forced : No

Audio
ID : 2
Format : AC-3
Format/Info : Audio Coding 3
Mode extension : CM (complete main)
Format settings, Endianness : Big
Codec ID : A_AC3
Duration : 1h 31mn
Bit rate mode : Constant
Bit rate : 384 Kbps
Channel(s) : 6 channels
Channel positions : Front: L C R, Side: L R, LFE
Sampling rate : 44.1 KHz
Bit depth : 16 bits
Compression mode : Lossy
Stream size : 251 MiB (11%)
Title : Дублированный
Language : Russian
Default : Yes
Forced : No

Text
ID : 3
Format : UTF-8
Codec ID : S_TEXT/UTF8
Codec ID/Info : UTF-8 Plain Text
Title : Русские (полные)
Language : Russian
Default : No
Forced : No

Menu
00:00:00.000 : :Chapter 01
00:04:49.372 : :Chapter 02
00:10:23.789 : :Chapter 03
00:14:19.275 : :Chapter 04
00:19:25.497 : :Chapter 05
00:25:11.218 : :Chapter 06
00:29:49.412 : :Chapter 07
00:35:50.815 : :Chapter 08
00:41:11.635 : :Chapter 09
00:46:29.536 : :Chapter 10
00:53:50.227 : :Chapter 11
00:57:44.794 : :Chapter 12
01:04:15.268 : :Chapter 13
01:08:48.499 : :Chapter 14
01:15:20.599 : :Chapter 15
01:18:50.642 : :Chapter 16



   Похожие торренты   Торрент   Размер 
В этой теме нет новых непрочитанных сообщений. Монстры на каникулах / Hotel Transylvania (2012) BDRip 720p | 60 FPS

992 | 52

3.21 ГБ

В этой теме нет новых непрочитанных сообщений. Монстры на каникулах / Hotel Transylvania (2012) BDRip 720p от DHT-Movies

125 | 9

2.64 ГБ

В этой теме нет новых непрочитанных сообщений. Монстры на каникулах / Hotel Transylvania (2012) BDRip 720p от HQ-ViDEO | Лицензия

299 | 23

4.43 ГБ

В этой теме нет новых непрочитанных сообщений. Монстры на каникулах / Hotel Transylvania (2012) BDRip 720p от Youtracker | D | лицензия

265 | 8

5.13 ГБ

В этой теме нет новых непрочитанных сообщений. Монстры на Каникулах / Hotel Transylvania (2012) BDRip-720p | Дополнительные материалы

31 | 21

1.12 ГБ

В этой теме нет новых непрочитанных сообщений. Монстры на каникулах 2 / Hotel Transylvania 2 (2015) BDRip-AVC от New-Team | iTunes

1798 | 77

2.14 ГБ

В этой теме нет новых непрочитанных сообщений. Монстры на каникулах 2 / Hotel Transylvania 2 (2015) BDRip-AVC от New-Team | iTunes

595 | 23

1.42 ГБ




Вы не можете начинать темы
Вы не можете отвечать на сообщения
Вы не можете редактировать свои сообщения
Вы не можете удалять свои сообщения
Вы не можете добавлять вложения

Перейти:  
Для Мосгорсуда, Роскомнадзора и рекламодателей: mosgorsud-torrent[собачка]yandex.ru
 Вход
ppkBB3cker v.2 © 2008-2014 @ PPK
[ Time : 0.062s | 15 Queries | GZIP : Off ]

Торрент трекер RUTOR.IN, Не можете зайти на rutor.org? Какой новый адрес рутор? Какое зеркало рутор? Не работает rutor.org и зеркала? Тогда наш торрент специально для вас. Rutor.in неофициальное зеркало rutor. В случае если у Вас заблокирован rutor или вдруг Вы не можете на него зайти, то Вы без труда сможете скачать бесплатно и без рекламы последние новинки кино, игр, сериалов и прочего у нас, на Rutor.in. Не нужно использовать прокси, чтобы зайти на рутор, достаточно воспользоваться нашим ресурсом. Все новые фильмы, игры, сериалы, книги и музыка за 2013 и 2014 годы через торрент бесплатно. Скачивайте фильмы в хорошем качестве, игры для пк, xbox, playstation без регистрации. У нас вы найдете новые Зарубежные сериалы и Русские сериалы 2013, 2014, 2015 годов. Оставайтесь с нами, качайте любимые фильмы, игры, сериалы, книги и музыку.
cron