img image001 image001 image001 image001 image001 image001 image001 image001 image001 image001 image001 image001 image001 image001 image001

Planets Sun Sun Sun
Статистика раздачи
Автор: Снежана | Размер: 4.37 ГБ | Добавлен: 27 июл 2013
Раздают: 77    Качают: 6
Скачать торрент
Скачать торрент
Описание торрента

СообщениеДобавлено: 27 июл 2013 

Шевели ластами! / Sammy's avonturen: De geheime doorgang


Год выпуска: 2010
Страны: Бельгия
Жанры: мультфильм, приключения
Продолжительность: 01:25:43
Режиссер: Бен Стассен
Перевод: Дубляж (на сцены расширенной версии) профессиональный многоголосый закадровый

Описание:
Для маленькой черепашки подводный мир — самое безопасное место. Здесь акулы, пираньи, змеи, а на берегу поджидают люди. И наш маленький Сэмми хочет узнать весь мир, от полярных льдов до субтропиков. Путешествие продлится ровно полвека, начиная с 1959 года, за это время даже климат успеет измениться.



Качество: BDRip 1080p (источник: Blu-ray Disc)
Формат: MKV
Видео кодек: H.264 (AVC)
Аудио кодек: AC3
Видео: 1920x1080, 6018 Kbps, 23,976 fps
Звук: 48 kHz, AC3, 6c, 640 kbps
Звук: 48 kHz, AC3, 6c, 640 kbps
Субтитры: Нет

Скачать Семпл



Общее
Уникальный идентификатор : 239675835525095864259625982323100729456 (0xB44FE309269F822684D8DAA03143C070)
Формат : Matroska
Версия формата : Version 4 / Version 2
Размер файла : 4,37 Гбайт
Продолжительность : 1 ч. 25 м.
Общий поток : 7295 Кбит/сек
Дата кодирования : UTC 2013-02-11 18:08:59
Программа кодирования : mkvmerge v6.0.0 ('Coming Up For Air') built on Jan 20 2013 09:52:00
Библиотека кодирования : libebml v1.3.0 + libmatroska v1.4.0

Видео
Идентификатор : 1
Формат : AVC
Формат/Информация : Advanced Video Codec
Профиль формата : High@L4.1
Параметр CABAC формата : Да
Параметр ReFrames формата : 4 кадра
Идентификатор кодека : V_MPEG4/ISO/AVC
Продолжительность : 1 ч. 25 м.
Битрейт : 6018 Кбит/сек
Ширина : 1920 пикселей
Высота : 1080 пикселей
Соотношение сторон : 16:9
Режим частоты кадров : Постоянный
Частота кадров : 23,976 кадра/сек
Цветовое пространство : YUV
Субдискретизация насыщенности : 4:2:0
Битовая глубина : 8 бит
Тип развёртки : Прогрессивная
Бит/(Пиксели*Кадры) : 0.121
Размер потока : 3,52 Гбайт (80%)
Заголовок : Sammy's avonturen: De geheime doorgang (2010) BDRip от Dimok
Библиотека кодирования : x264 core 125 r2208 d9d2288
Настройки программы : cabac=1 / ref=4 / deblock=1:0:0 / analyse=0x3:0x113 / me=umh / subme=11 / psy=1 / psy_rd=1.00:0.20 / mixed_ref=1 / me_range=32 / chroma_me=1 / trellis=2 / 8x8dct=1 / cqm=0 / deadzone=21,11 / fast_pskip=1 / chroma_qp_offset=-2 / threads=12 / lookahead_threads=2 / sliced_threads=0 / slices=2 / nr=0 / decimate=1 / interlaced=0 / bluray_compat=0 / constrained_intra=0 / bframes=3 / b_pyramid=2 / b_adapt=2 / b_bias=0 / direct=1 / weightb=1 / open_gop=0 / weightp=2 / keyint=240 / keyint_min=23 / scenecut=40 / intra_refresh=0 / rc_lookahead=61 / rc=2pass / mbtree=1 / bitrate=6018 / ratetol=1.0 / qcomp=0.63 / qpmin=1 / qpmax=69 / qpstep=4 / cplxblur=20.0 / qblur=0.5 / ip_ratio=1.40 / aq=2:1.00
Язык : English
Default : Да
Forced : Нет

Аудио #1
Идентификатор : 2
Формат : AC-3
Формат/Информация : Audio Coding 3
Расширение режима : CM (complete main)
Параметр Endianness формата : Big
Идентификатор кодека : A_AC3
Продолжительность : 1 ч. 25 м.
Вид битрейта : Постоянный
Битрейт : 640 Кбит/сек
Каналы : 6 каналов
Расположение каналов : Front: L C R, Side: L R, LFE
Частота : 48,0 КГц
Битовая глубина : 16 бит
Метод сжатия : С потерями
Размер потока : 392 Мбайт (9%)
Заголовок : AC3 5.1 640 Kbps. Russian
Язык : Russian
Default : Да
Forced : Нет

Аудио #2
Идентификатор : 3
Формат : AC-3
Формат/Информация : Audio Coding 3
Расширение режима : CM (complete main)
Параметр Endianness формата : Big
Идентификатор кодека : A_AC3
Продолжительность : 1 ч. 25 м.
Вид битрейта : Постоянный
Битрейт : 640 Кбит/сек
Каналы : 6 каналов
Расположение каналов : Front: L C R, Side: L R, LFE
Частота : 48,0 КГц
Битовая глубина : 16 бит
Метод сжатия : С потерями
Размер потока : 392 Мбайт (9%)
Заголовок : ENG
Язык : English
Default : Нет
Forced : Нет

Меню
00:00:00.000 : en:00:00:00.000
00:01:22.708 : en:00:01:22.708
00:02:11.965 : en:00:02:11.965
00:03:35.507 : en:00:03:35.507
00:05:25.825 : en:00:05:25.825
00:07:00.045 : en:00:07:00.045
00:09:11.426 : en:00:09:11.426
00:11:34.736 : en:00:11:34.736
00:14:56.979 : en:00:14:56.979
00:17:38.349 : en:00:17:38.349
00:21:25.284 : en:00:21:25.284
00:24:09.156 : en:00:24:09.156
00:25:29.820 : en:00:25:29.820
00:34:55.427 : en:00:34:55.427
00:42:47.398 : en:00:42:47.398
00:47:49.408 : en:00:47:49.408
00:49:15.828 : en:00:49:15.828
00:52:02.119 : en:00:52:02.119
00:56:49.448 : en:00:56:49.448
00:58:53.321 : en:00:58:53.321
01:02:38.797 : en:01:02:38.797
01:05:40.937 : en:01:05:40.937
01:08:24.559 : en:01:08:24.559
01:11:41.297 : en:01:11:41.297
01:14:08.903 : en:01:14:08.903
01:17:42.992 : en:01:17:42.992
01:20:27.614 : en:01:20:27.614
x264 [info]: frame I:928 Avg QP:15.68 size:230900
x264 [info]: frame P:36917 Avg QP:19.23 size: 61078
x264 [info]: frame B:85482 Avg QP:22.61 size: 16352



   Похожие торренты   Торрент   Размер 
В этой теме нет новых непрочитанных сообщений. Шевели ластами! / Sammy's Avonturen. De Geheime Doorgang (2010) BDRip | D | Полная версия

50 | 3

745.26 МБ

В этой теме нет новых непрочитанных сообщений. Шевели ластами! / Sammy's Avonturen. De Geheime Doorgang (2010) HDRip от MediaClub | D | Лицензия | Театральная версия

49 | 21

745.87 МБ

В этой теме нет новых непрочитанных сообщений. Шевели ластами! / Sammy's avonturen: De geheime doorgang (2010) BDRip 1080p

16 | 4

3.04 ГБ

В этой теме нет новых непрочитанных сообщений. Шевели ластами ! / Sammy's avonturen: De geheime doorgang (2010) BDRip 720p от FREEISLAND

241 | 9

2.18 ГБ

В этой теме нет новых непрочитанных сообщений. Шевели ластами! / Sammy's avonturen: De geheime doorgang (2010) BDRip-AVC 1080p от FREEISLAND

3 | 4

4.37 ГБ

В этой теме нет новых непрочитанных сообщений. Шевели ластами! / Sammy's avonturen: De geheime doorgang (2010) DVDRip - AVC

4 | 2

1 ГБ

В этой теме нет новых непрочитанных сообщений. Шевели ластами! / Sammy's avonturen: De geheime doorgang (2010) DVDRip | лицензия

7 | 3

1.36 ГБ




Вы не можете начинать темы
Вы не можете отвечать на сообщения
Вы не можете редактировать свои сообщения
Вы не можете удалять свои сообщения
Вы не можете добавлять вложения

Перейти:  
Для Мосгорсуда, Роскомнадзора и рекламодателей: mosgorsud-torrent[собачка]yandex.ru
 Вход
ppkBB3cker v.2 © 2008-2014 @ PPK
[ Time : 0.024s | 15 Queries | GZIP : Off ]

Торрент трекер RUTOR.IN, Не можете зайти на rutor.org? Какой новый адрес рутор? Какое зеркало рутор? Не работает rutor.org и зеркала? Тогда наш торрент специально для вас. Rutor.in неофициальное зеркало rutor. В случае если у Вас заблокирован rutor или вдруг Вы не можете на него зайти, то Вы без труда сможете скачать бесплатно и без рекламы последние новинки кино, игр, сериалов и прочего у нас, на Rutor.in. Не нужно использовать прокси, чтобы зайти на рутор, достаточно воспользоваться нашим ресурсом. Все новые фильмы, игры, сериалы, книги и музыка за 2013 и 2014 годы через торрент бесплатно. Скачивайте фильмы в хорошем качестве, игры для пк, xbox, playstation без регистрации. У нас вы найдете новые Зарубежные сериалы и Русские сериалы 2013, 2014, 2015 годов. Оставайтесь с нами, качайте любимые фильмы, игры, сериалы, книги и музыку.
cron