img image001 image001 image001 image001 image001 image001 image001 image001 image001 image001 image001 image001 image001 image001 image001

Planets Sun Sun Sun
Статистика раздачи
Автор: Снежана | Размер: 1.44 ГБ | Добавлен: 27 июл 2013
Раздают: 9    Качают: 1
Скачать торрент
Скачать торрент
Описание торрента

СообщениеДобавлено: 27 июл 2013 

Властелины времени / Time Masters / Les maîtres du temps



Год выпуска: 1982
Страна: Франция, Великобритания, Германия (ФРГ), Швейцария, Венгрия
Жанр: мультфильм, фантастика, драма, детектив
Продолжительность: 01:15:09
Перевод: Профессиональный (полное дублирование)

Режиссер: Рене Лалу

В ролях: Жан Вальмонт, Мишель Елиас, Фридерик ЛеГрос, Ив-Мари Морен, Моника Тьерри, Сади Реббо, Patrick Baujin, Пьер Тоурнер, Ален Кюни, Ив Брэнвиль

Описание: Пьель, 7-летний мальчик, попал в пустыню планеты Пердиде, уцелев после атаки гигантских ос. На вызов о помощи откликнулся друг его отца Джаффар. Он держит контакт с ребенком и спешит через пространство к Пердиде…

Джаффар еще не знает, что ему придется столкнуться с Властелинами Времени и спасать нужно будет не только ребенка, но и его родную планету…

Доп. информация:
Картинка почищена от шума присутствующего на DVD от RUSCICO.
Русский дубляж - тот же, с которым лента шла в прокате в кинотеатрах.
4 звуковых дорожки - оригинальная французская, русский дубляж, английский дубляж, немецкий дубляж.



Качество: DVDRip
Формат: MKV
Видео: 672x400 (1.680), 2229 kbps, XviD, 25.000 fps, 0.332 bpp
Аудио:
Russian; 44.1 kHz, MPEG Layer 3, 2 ch, 128 kbps
English; 44.1 kHz, MPEG Layer 3, 1 ch, 112 kbps
French; 44.1 kHz, MPEG Layer 3, 1 ch, 112 kbps
German; 44.1 kHz, MPEG Layer 3, 1 ch, 112 kbps

Семпл

Автор рипа: omegalord


General
Unique ID : 247139907097621431287966710309427576668 (0xB9ED6A2D44ACD8F39CC45CC43F9F7F5C)
Complete name : Time masters (1982) (Laloux Moebius) Rus.Eng.Fre.Ger.mkv
Format : Matroska
Format version : Version 2
File size : 1.44 GiB
Duration : 1h 15mn
Overall bit rate : 2 748 Kbps
Encoded date : UTC 2009-06-13 15:32:52
Writing application : mkvmerge v2.9.5 ('Tu es le seul') built on Jun 7 2009 11:07:07
Writing library : libebml v0.7.7 + libmatroska v0.8.1

Video
ID : 1
Format : MPEG-4 Visual
Format settings, BVOP : Yes
Format settings, QPel : No
Format settings, GMC : No warppoints
Format settings, Matrix : Default (H.263)
Codec ID : V_MS/VFW/FOURCC / XVID
Codec ID/Hint : XviD
Duration : 1h 15mn
Bit rate : 2 229 Kbps
Width : 672 pixels
Height : 400 pixels
Display aspect ratio : 1.680
Frame rate mode : Constant
Frame rate : 25.000 fps
Color space : YUV
Chroma subsampling : 4:2:0
Bit depth : 8 bits
Scan type : Progressive
Compression mode : Lossy
Bits/(Pixel*Frame) : 0.332
Stream size : 1.17 GiB (81%)
Default : Yes
Forced : No

Audio #1
ID : 2
Format : MPEG Audio
Format version : Version 1
Format profile : Layer 3
Mode : Joint stereo
Mode extension : MS Stereo
Codec ID : A_MPEG/L3
Codec ID/Hint : MP3
Duration : 1h 15mn
Bit rate mode : Constant
Bit rate : 128 Kbps
Channel(s) : 2 channels
Sampling rate : 44.1 KHz
Compression mode : Lossy
Stream size : 68.8 MiB (5%)
Title : 1
Language : Russian
Default : Yes
Forced : No

Audio #2
ID : 3
Format : MPEG Audio
Format version : Version 1
Format profile : Layer 3
Codec ID : A_MPEG/L3
Codec ID/Hint : MP3
Duration : 1h 15mn
Bit rate mode : Constant
Bit rate : 112 Kbps
Channel(s) : 1 channel
Sampling rate : 44.1 KHz
Compression mode : Lossy
Stream size : 60.2 MiB (4%)
Title : 2
Language : English
Default : No
Forced : No

Audio #3
ID : 4
Format : MPEG Audio
Format version : Version 1
Format profile : Layer 3
Codec ID : A_MPEG/L3
Codec ID/Hint : MP3
Duration : 1h 15mn
Bit rate mode : Constant
Bit rate : 112 Kbps
Channel(s) : 1 channel
Sampling rate : 44.1 KHz
Compression mode : Lossy
Stream size : 60.2 MiB (4%)
Title : 3
Language : French
Default : No
Forced : No

Audio #4
ID : 5
Format : MPEG Audio
Format version : Version 1
Format profile : Layer 3
Codec ID : A_MPEG/L3
Codec ID/Hint : MP3
Duration : 1h 15mn
Bit rate mode : Constant
Bit rate : 112 Kbps
Channel(s) : 1 channel
Sampling rate : 44.1 KHz
Compression mode : Lossy
Stream size : 60.2 MiB (4%)
Title : 4
Language : German
Default : No
Forced : No













   Похожие торренты   Торрент   Размер 
В этой теме нет новых непрочитанных сообщений. Властелины времени / Les Maitres Du Temps (1982) DVDRip

8 | 2

2.48 ГБ

В этой теме нет новых непрочитанных сообщений. Властелины времени / Les maîtres du temps (1982) DVDRip-AVC

288 | 51

1.45 ГБ

В этой теме нет новых непрочитанных сообщений. Властелины времени / Les maîtres du temps (1982) DVDRip-AVC | D, P

312 | 3

4.01 ГБ

В этой теме нет новых непрочитанных сообщений. Властелины времени / Les maîtres du temps (1982) DVDRip от Киномагия

19 | 2

1.37 ГБ

В этой теме нет новых непрочитанных сообщений. Хи-Мен и Властелины Вселенной / He-Man and the Masters of the Universe [2-3, 5, 7, 10-11, 14-15, 17-27] (1983) DVDRip

1 | 2

4.47 ГБ

В этой теме нет новых непрочитанных сообщений. Хи-Мэн и Властелины Вселенной / He-Man and the Masters of the Universe [S01-S02] (1983-1985) DVDRip

33 | 25

30.37 ГБ

В этой теме нет новых непрочитанных сообщений. Хи-Мен и Властелины Вселенной / He-Man and the Masters of the Universe (1983) VHSRip

6 | 4

6.61 ГБ




Вы не можете начинать темы
Вы не можете отвечать на сообщения
Вы не можете редактировать свои сообщения
Вы не можете удалять свои сообщения
Вы не можете добавлять вложения

Перейти:  
Для Мосгорсуда, Роскомнадзора и рекламодателей: mosgorsud-torrent[собачка]yandex.ru
 Вход
ppkBB3cker v.2 © 2008-2014 @ PPK
[ Time : 0.046s | 15 Queries | GZIP : Off ]

Торрент трекер RUTOR.IN, Не можете зайти на rutor.org? Какой новый адрес рутор? Какое зеркало рутор? Не работает rutor.org и зеркала? Тогда наш торрент специально для вас. Rutor.in неофициальное зеркало rutor. В случае если у Вас заблокирован rutor или вдруг Вы не можете на него зайти, то Вы без труда сможете скачать бесплатно и без рекламы последние новинки кино, игр, сериалов и прочего у нас, на Rutor.in. Не нужно использовать прокси, чтобы зайти на рутор, достаточно воспользоваться нашим ресурсом. Все новые фильмы, игры, сериалы, книги и музыка за 2013 и 2014 годы через торрент бесплатно. Скачивайте фильмы в хорошем качестве, игры для пк, xbox, playstation без регистрации. У нас вы найдете новые Зарубежные сериалы и Русские сериалы 2013, 2014, 2015 годов. Оставайтесь с нами, качайте любимые фильмы, игры, сериалы, книги и музыку.
cron