img image001 image001 image001 image001 image001 image001 image001 image001 image001 image001 image001 image001 image001 image001 image001

Planets Sun Sun Sun
Статистика раздачи
Автор: Снежана | Размер: 4.37 ГБ | Добавлен: 27 июл 2013
Раздают: 33    Качают: 20
Скачать торрент
Скачать торрент
Описание торрента

СообщениеДобавлено: 27 июл 2013 

Союзмультфильм. Сборник 2. Новые приключения попугая Кеши


Год выпуска: 2005-2007
Страны: Россия, Союзмультфильм
Жанры: Мультфильм, детский, семейный
Продолжительность: 01:44:58
Режиссер: Александр Давыдов
Перевод: Оригинал

В ролях:Игорь Христенко, Дмитрий Филимонов, Дмитрий Курта

Описание:
Мультипликационный сериал «Новые приключения попугая Кеши» — приключенческая комедийная анимация, созданная российской киностудией Союзмультфильм в 2005-2006 гг. Попугая Кешу знают все, его уже давно полюбили зрители, еще в советское время, он был очень популярным героем, которого озвучивал великий метр сатиры Геннадий Хазанов. Годы идут, но герой продолжает радовать нас уже и в наше современное время. Он совершенно не потерял своей харизматичности и характера забияки, и все также попадает в сногсшибательные переделки и фантастические истории.



Качество: BDRip 1080p (источник: Blu-ray Disc)
Формат: MKV
Видео кодек: H.264 (AVC)
Аудио кодек: AC3
Видео: 1424x1080, 5316 Kbps, 23,976 fps
Звук: 48 kHz, AC3, 6c, 640 kbps
Субтитры: Нет

Скачать Семпл




01. Кеша-рыболов
Мужество Кеши
02. Поединок
03. Похитители ёлок
04. Знакомые нашей ёлки
05. История любви одной лягушки
06. Попугай Кеша и чудовище
Попугай Кеша и чудовище

Общее
Уникальный идентификатор : 210602788746935103706573614033080785378 (0x9E709F292AE9A9ACA25BB810D31D99E2)
Формат : Matroska
Версия формата : Version 4 / Version 2
Размер файла : 4,37 Гбайт
Продолжительность : 1 ч. 44 м.
Общий поток : 5957 Кбит/сек
Дата кодирования : UTC 2013-02-12 18:02:25
Программа кодирования : mkvmerge v6.0.0 ('Coming Up For Air') built on Jan 20 2013 09:52:00
Библиотека кодирования : libebml v1.3.0 + libmatroska v1.4.0

Видео
Идентификатор : 1
Формат : AVC
Формат/Информация : Advanced Video Codec
Профиль формата : High@L4.1
Параметр CABAC формата : Да
Параметр ReFrames формата : 4 кадра
Идентификатор кодека : V_MPEG4/ISO/AVC
Продолжительность : 1 ч. 44 м.
Битрейт : 5316 Кбит/сек
Ширина : 1424 пикселя
Высота : 1080 пикселей
Соотношение сторон : 4:3
Режим частоты кадров : Постоянный
Частота кадров : 23,976 кадра/сек
Цветовое пространство : YUV
Субдискретизация насыщенности : 4:2:0
Битовая глубина : 8 бит
Тип развёртки : Прогрессивная
Бит/(Пиксели*Кадры) : 0.144
Размер потока : 3,81 Гбайт (87%)
Заголовок : Союзмультфильм. Сборник 2. Новые приключения попугая Кеши (2005-2007) от Dimok
Библиотека кодирования : x264 core 125 r2208 d9d2288
Настройки программы : cabac=1 / ref=4 / deblock=1:0:0 / analyse=0x3:0x113 / me=umh / subme=11 / psy=1 / psy_rd=1.00:0.40 / mixed_ref=1 / me_range=32 / chroma_me=1 / trellis=2 / 8x8dct=1 / cqm=0 / deadzone=21,11 / fast_pskip=1 / chroma_qp_offset=-3 / threads=12 / lookahead_threads=2 / sliced_threads=0 / slices=2 / nr=0 / decimate=1 / interlaced=0 / bluray_compat=0 / constrained_intra=0 / bframes=3 / b_pyramid=2 / b_adapt=2 / b_bias=0 / direct=1 / weightb=1 / open_gop=0 / weightp=2 / keyint=240 / keyint_min=23 / scenecut=40 / intra_refresh=0 / rc_lookahead=62 / rc=2pass / mbtree=1 / bitrate=5316 / ratetol=1.0 / qcomp=0.70 / qpmin=1 / qpmax=69 / qpstep=4 / cplxblur=20.0 / qblur=0.5 / ip_ratio=1.40 / aq=2:1.00
Язык : English
Default : Да
Forced : Нет

Аудио
Идентификатор : 2
Формат : AC-3
Формат/Информация : Audio Coding 3
Расширение режима : CM (complete main)
Параметр Endianness формата : Big
Идентификатор кодека : A_AC3
Продолжительность : 1 ч. 44 м.
Вид битрейта : Постоянный
Битрейт : 640 Кбит/сек
Каналы : 6 каналов
Расположение каналов : Front: L C R, Side: L R, LFE
Частота : 48,0 КГц
Битовая глубина : 16 бит
Метод сжатия : С потерями
Размер потока : 481 Мбайт (11%)
Заголовок : Оригинал
Язык : Russian
Default : Да
Forced : Нет

Меню
00:00:00.000 : :Кеша-рыболов
00:12:51.120 : :Мужество Кеши
00:25:53.205 : :Поединок
00:40:10.355 : :Похитители ёлок
00:53:44.257 : :Знакомые нашей ёлки
01:03:47.365 : :История любви одной лягушки
01:17:44.845 : :Попугай Кеша и чудовище
01:31:43.121 : :Попугай Кеша и чудовище, история 2
x264 [info]: frame I:1435 Avg QP:21.72 size:143354
x264 [info]: frame P:43567 Avg QP:24.58 size: 42630
x264 [info]: frame B:106001 Avg QP:26.61 size: 20016



   Похожие торренты   Торрент   Размер 
В этой теме нет новых непрочитанных сообщений. Возвращение блудного попугая / Новые приключения попугая Кеши [01-05 из 05] (1984-2005) DVDRip

1190 | 74

911.51 МБ

В этой теме нет новых непрочитанных сообщений. Возвращение блудного попугая / Новые приключения попугая Кеши [01-05 из 05] (1988-2005) DVDRip-AVC от Youtracker

153 | 13

749.06 МБ

В этой теме нет новых непрочитанных сообщений. Возвращение блудного попугая / Новые приключения попугая Кеши [01-05 из 05] (1988-2005) DVDRip от Torrent-Xzona | КПК

23 | 6

199.94 МБ

В этой теме нет новых непрочитанных сообщений. Новые приключения Золушки / Happily N'Ever After (2007) BDRip от HQ-ViDEO

49 | 6

1.46 ГБ

В этой теме нет новых непрочитанных сообщений. Приключения Карфагена; Новые приключения Карфагена / Les Naufrages de Carthage; Viva Carthago (2003-2005) 2xDVD5 от Youtracker | Лицензия

0 | 5

7.41 ГБ

В этой теме нет новых непрочитанных сообщений. Король Лев: Новые приключения (2005) PC

258 | 11

616.38 МБ

В этой теме нет новых непрочитанных сообщений. Кавказская пленница, или новые приключения Шурика (1967) BDRip 1080p Rip by Neofilm

33 | 9

4.36 ГБ




Вы не можете начинать темы
Вы не можете отвечать на сообщения
Вы не можете редактировать свои сообщения
Вы не можете удалять свои сообщения
Вы не можете добавлять вложения

Перейти:  
Для Мосгорсуда, Роскомнадзора и рекламодателей: mosgorsud-torrent[собачка]yandex.ru
 Вход
ppkBB3cker v.2 © 2008-2014 @ PPK
[ Time : 1.490s | 15 Queries | GZIP : Off ]

Торрент трекер RUTOR.IN, Не можете зайти на rutor.org? Какой новый адрес рутор? Какое зеркало рутор? Не работает rutor.org и зеркала? Тогда наш торрент специально для вас. Rutor.in неофициальное зеркало rutor. В случае если у Вас заблокирован rutor или вдруг Вы не можете на него зайти, то Вы без труда сможете скачать бесплатно и без рекламы последние новинки кино, игр, сериалов и прочего у нас, на Rutor.in. Не нужно использовать прокси, чтобы зайти на рутор, достаточно воспользоваться нашим ресурсом. Все новые фильмы, игры, сериалы, книги и музыка за 2013 и 2014 годы через торрент бесплатно. Скачивайте фильмы в хорошем качестве, игры для пк, xbox, playstation без регистрации. У нас вы найдете новые Зарубежные сериалы и Русские сериалы 2013, 2014, 2015 годов. Оставайтесь с нами, качайте любимые фильмы, игры, сериалы, книги и музыку.
cron