img image001 image001 image001 image001 image001 image001 image001 image001 image001 image001 image001 image001 image001 image001 image001

Planets Sun Sun Sun
Статистика раздачи
Автор: Снежана | Размер: 1.13 ГБ | Добавлен: 27 июл 2013
Раздают: 218    Качают: 22
Скачать торрент
Скачать торрент
Описание торрента

СообщениеДобавлено: 27 июл 2013 

Том и Джерри: Робин Гуд и Мышь-Весельчак / Tom and Jerry: Robin Hood and His Merry Mouse (2012) BDRip
Релиз от HQ-ViDEO

Информация о фильме:
Название: Том и Джерри: Робин Гуд и Мышь-Весельчак
Оригинальное название: Tom and Jerry: Robin Hood and His Merry Mouse
Год выхода: 2012
Жанр: Мультфильм, Семейный
Режиссёр: Спайк Брандт / Spike Brandt, Тони Червоне / Tony Cervone
Сюжет мультфильма:
Он грабил богатых, раздавал награбленное бедным, а теперь ему отчаянно нужна помощь Тома и Джерри! Знаменитый разбойник Робин Гуд попал в лапы злого шерифа Ноттингемского, а возлюбленной Робина, деве Мэриан, грозит серьезная опасность со стороны алчного принца Джона. Сумеют ли заклятые враги Том и Джерри на время забыть о своей вражде, чтобы спасти положение? В новом полнометражном мультипликационном фильме любимая многими средневековая сказка обрела новое прочтение. Динамичный сюжет, опасные трюки, залихватские песни, и, конечно, всеобщие любимцы, воитель Томас и маленький разбойник Джерри. Один за всех и все за одного в самой бесшабашной и удивительной истории из всех, что когда-либо происходили в Шервудском лесу.

Страна: США
Продолжительность: 00:57:40
Перевод: Русский дублированный + Оригинальная дорожка
Субтитры: Русские, Английские (SDH)
Информация о файле:
Качество: BDRip
Файл: AVI
Кодек: XviD, build 65 codec
Видео: 704 x 400, 1.76:1; 23.976 fps; ~ 2223 kbps; 0.333 bit/pixel
Аудио #1: 48 kHz, AC3 Dolby Digital, 2.0 ch, ~192.00 kbps avg | Dub
Аудио #2: 48 kHz, AC3 Dolby Digital, 3/2 (L,C,R,l,r) + LFE ch, ~448.00 kbps avg | Eng
Размер: 1154.2 Mb


Format : AVI
Format/Info : Audio Video Interleave
File size : 1.13 GiB
Duration : 57mn 40s
Overall bit rate : 2 814 Kbps
Movie name : Том и Джерри: Робин Гуд и Мышь-Весельчак / Tom and Jerry: Robin Hood and His Merry Mouse (2012)
Director : MECHANICAL ENGINEER (BD-Remux)
Writing application : VirtualDubMod 1.5.10.3 | www.virtualdub-fr.org || (build 2550/release)
Copyright : HQ-ViDEO (www.hq-video.org)
Comment : 21.12.12
Video
ID : 0
Format : MPEG-4 Visual
Format profile : Advanced Simple@L5
Format settings, BVOP : Yes
Format settings, QPel : No
Format settings, GMC : No warppoints
Format settings, Matrix : Custom
Codec ID : XVID
Codec ID/Hint : XviD
Duration : 57mn 40s
Bit rate : 2 224 Kbps
Width : 704 pixels
Height : 400 pixels
Display aspect ratio : 16:9
Frame rate : 23.976 fps
Color space : YUV
Chroma subsampling : 4:2:0
Bit depth : 8 bits
Scan type : Progressive
Bits/(Pixel*Frame) : 0.329
Stream size : 917 MiB (79%)
Writing library : XviD 65
Audio #1
ID : 1
Format : AC-3
Format/Info : Audio Coding 3
Mode extension : CM (complete main)
Codec ID : 2000
Duration : 57mn 39s
Bit rate mode : Constant
Bit rate : 192 Kbps
Channel(s) : 2 channels
Channel positions : Front: L R
Sampling rate : 48.0 KHz
Bit depth : 16 bits
Stream size : 79.2 MiB (7%)
Alignment : Split accross interleaves
Interleave, duration : 42 ms (1.00 video frame)
Interleave, preload duration : 500 ms
Audio #2
ID : 2
Format : AC-3
Format/Info : Audio Coding 3
Mode extension : CM (complete main)
Codec ID : 2000
Duration : 57mn 40s
Bit rate mode : Constant
Bit rate : 384 Kbps
Channel(s) : 6 channels
Channel positions : Front: L C R, Side: L R, LFE
Sampling rate : 48.0 KHz
Bit depth : 16 bits
Stream size : 158 MiB (14%)
Alignment : Split accross interleaves
Interleave, duration : 42 ms (1.00 video frame)
Interleave, preload duration : 500 ms

Релиз:
Автор рипа: MECHANICAL ENGINEER
Источник: Blu-Ray Remux
ПРИЯТНОГО ПРОСМОТРА!



   Похожие торренты   Торрент   Размер 
В этой теме нет новых непрочитанных сообщений. Том и Джерри: Робин Гуд и Мышь-Весельчак / Tom and Jerry: Robin Hood and His Merry Mouse (2012) BDRip-AVC | iPad

12 | 4

855.21 МБ

В этой теме нет новых непрочитанных сообщений. Том и Джерри: Робин Гуд и Мышь-Весельчак / Tom and Jerry: Robin Hood and His Merry Mouse (2012) BDRip от HELLYWOOD

115 | 7

1.09 ГБ

В этой теме нет новых непрочитанных сообщений. Том и Джерри: Робин Гуд и Мышь-Весельчак / Tom and Jerry: Robin Hood and His Merry Mouse (2012) BDRip 1080p | Лицензия

131 | 9

2.54 ГБ

В этой теме нет новых непрочитанных сообщений. Том и Джерри: Робин Гуд и Мышь-Весельчак / Tom and Jerry: Robin Hood and His Merry Mouse (2012) BDRip 720p от potroks | D

28 | 4

1.46 ГБ

В этой теме нет новых непрочитанных сообщений. Том и Джерри: Робин Гуд и Мышь-Весельчак / Tom and Jerry: Robin Hood and His Merry Mouse (2012) Blu-ray 1080p

5 | 4

11.85 ГБ

В этой теме нет новых непрочитанных сообщений. Том и Джерри: Робин Гуд и Мышь-Весельчак / Tom and Jerry: Robin Hood and His Merry Mouse (2012) BDRip 720p от Leonardo and Scarabey

148 | 63

1.26 ГБ

В этой теме нет новых непрочитанных сообщений. Том и Джерри: Робин Гуд и Мышь-Весельчак / Tom and Jerry: Robin Hood and His Merry Mouse (2012) BDRemux 1080p

2 | 4

9.29 ГБ




Вы не можете начинать темы
Вы не можете отвечать на сообщения
Вы не можете редактировать свои сообщения
Вы не можете удалять свои сообщения
Вы не можете добавлять вложения

Перейти:  
Для Мосгорсуда, Роскомнадзора и рекламодателей: mosgorsud-torrent[собачка]yandex.ru
 Вход
ppkBB3cker v.2 © 2008-2014 @ PPK
[ Time : 0.024s | 14 Queries | GZIP : Off ]

Торрент трекер RUTOR.IN, Не можете зайти на rutor.org? Какой новый адрес рутор? Какое зеркало рутор? Не работает rutor.org и зеркала? Тогда наш торрент специально для вас. Rutor.in неофициальное зеркало rutor. В случае если у Вас заблокирован rutor или вдруг Вы не можете на него зайти, то Вы без труда сможете скачать бесплатно и без рекламы последние новинки кино, игр, сериалов и прочего у нас, на Rutor.in. Не нужно использовать прокси, чтобы зайти на рутор, достаточно воспользоваться нашим ресурсом. Все новые фильмы, игры, сериалы, книги и музыка за 2013 и 2014 годы через торрент бесплатно. Скачивайте фильмы в хорошем качестве, игры для пк, xbox, playstation без регистрации. У нас вы найдете новые Зарубежные сериалы и Русские сериалы 2013, 2014, 2015 годов. Оставайтесь с нами, качайте любимые фильмы, игры, сериалы, книги и музыку.