img image001 image001 image001 image001 image001 image001 image001 image001 image001 image001 image001 image001 image001 image001 image001

Planets Sun Sun Sun
Статистика раздачи
Автор: Снежана | Размер: 657.04 МБ | Добавлен: 27 июл 2013
Раздают: 500    Качают: 28
Скачать торрент
Скачать торрент
Описание торрента

СообщениеДобавлено: 27 июл 2013 

#77

Год выпуска: 2012
Страна: Россия
Жанр: мультфильм, комедия, приключения
Продолжительность: 01:06:29
Перевод: Не требуется

Режиссер: Константин Феоктистов
Продюссер: Александр Боярский, Сергей Сельянов
Сценарий: Александр Боярский

Мировой рейтинг IMDB 4.40 (106)


В ролях: Дмитрий Быковский-Ромашов, Валерий Соловьев, Олег Куликович, Сергей Маковецкий, Дмитрий Высоцкий, Фёдор Бондарчук, Елизавета Боярская, Мария Цветкова-Овсянникова, Елена Шульман, Лия Медведева

Описание: На этот раз Алеша Попович, Добрыня Никитич и Илья Муромец, благодаря козням коварной Бабы Яги, оказываются за семью морями на острове, на котором живут туземцы и страшный Гомума. В их отсутствие купец Колыван решают вместе с Бабой-Ягой захватить царство и забрать власть у князя Киевского. На помощь незадачливому правителю приходит конь Юлий, а также жены богатырей и их многочисленные родственники. Словом, богатырей и зрителей ждут приключения на дальних берегах, обыкновенные и невероятные.
Доп. информация: Обрезаны титры.

Исходник:

Качество: BDRip-AVC
Формат: MKV
Видео кодек: H.264
Аудио кодек: AC3
Видео: H.264, 1024x576, 23.976fps, 996 Kbps, High 10@L5.1
Аудио: AC3, 48.0 KHz, 384 Kbps, 6 channels, 16 bits

General
Unique ID : 210308245494423931642317998930193895675 (0x9E37E50EA8A61C419004ADFDF8D150FB)
Complete name : D:BDRip-AVCТри богатыря на дальних берегах (2012).mkv
Format : Matroska
Format version : Version 2
File size : 657 MiB
Duration : 1h 6mn
Overall bit rate : 1 382 Kbps
Encoded date : UTC 2013-01-31 12:06:17
Writing application : mkvmerge v5.8.0 ('No Sleep / Pillow') built on Sep 2 2012 15:37:04
Writing library : libebml v1.2.3 + libmatroska v1.3.0

Video
ID : 1
Format : AVC
Format/Info : Advanced Video Codec
Format profile : High 10@L5.1
Format settings, CABAC : Yes
Format settings, ReFrames : 15 frames
Codec ID : V_MPEG4/ISO/AVC
Duration : 1h 6mn
Bit rate : 996 Kbps
Width : 1 024 pixels
Height : 576 pixels
Display aspect ratio : 16:9
Frame rate mode : Constant
Frame rate : 23.976 fps
Color space : YUV
Chroma subsampling : 4:2:0
Bit depth : 10 bits
Scan type : Progressive
Bits/(Pixel*Frame) : 0.070
Stream size : 461 MiB (70%)
Writing library : x264 core 129 r2230+696+35 805d074 tMod [10-bit@all X86_64]
Encoding settings : cabac=1 / ref=15 / deblock=1:0:0 / analyse=0x3:0x133 / me=tesa / subme=11 / psy=1 / fade_compensate=0.00 / psy_rd=0.40:0.00 / mixed_ref=1 / me_range=64 / chroma_me=1 / trellis=2 / 8x8dct=1 / cqm=0 / deadzone=21,11 / fast_pskip=1 / chroma_qp_offset=-2 / threads=4 / lookahead_threads=1 / sliced_threads=0 / nr=0 / decimate=1 / interlaced=0 / bluray_compat=0 / constrained_intra=0 / fgo=0 / bframes=8 / b_pyramid=2 / b_adapt=2 / b_bias=0 / direct=2 / weightb=1 / open_gop=0 / weightp=2 / keyint=230 / keyint_min=23 / scenecut=40 / intra_refresh=0 / rc_lookahead=50 / rc=2pass / mbtree=1 / bitrate=996 / ratetol=1.0 / qcomp=0.60 / qpmin=0 / qpmax=81 / qpstep=4 / cplxblur=20.0 / qblur=0.5 / ip_ratio=1.40 / aq=1:0.60
Language : Russian
Default : Yes
Forced : No
Color primaries : BT.709
Transfer characteristics : BT.709
Matrix coefficients : BT.709

Audio
ID : 2
Format : AC-3
Format/Info : Audio Coding 3
Mode extension : CM (complete main)
Format settings, Endianness : Big
Codec ID : A_AC3
Duration : 1h 6mn
Bit rate mode : Constant
Bit rate : 384 Kbps
Channel(s) : 6 channels
Channel positions : Front: L C R, Side: L R, LFE
Sampling rate : 48.0 KHz
Bit depth : 16 bits
Compression mode : Lossy
Stream size : 183 MiB (28%)
Language : Russian
Default : Yes
Forced : No




Релиз от:



   Похожие торренты   Торрент   Размер 
В этой теме нет новых непрочитанных сообщений. Три богатыря на дальних берегах (2012) BDRip 1080p [Hi10P] от FREEISLAND

28 | 14

2.91 ГБ

В этой теме нет новых непрочитанных сообщений. Три богатыря на дальних берегах (2012) DVDRip-AVC [Hi10P] от FREEISLAND

34 | 4

698.72 МБ

В этой теме нет новых непрочитанных сообщений. Три богатыря на дальних берегах (2012) BDRip 1080p

86 | 8

3.9 ГБ

В этой теме нет новых непрочитанных сообщений. Три богатыря на дальних берегах (2012) BDRip от HQCLUB

95 | 12

1.09 ГБ

В этой теме нет новых непрочитанных сообщений. Три богатыря на дальних берегах (2012) BDRip 720p

36 | 7

2.18 ГБ

В этой теме нет новых непрочитанных сообщений. Три богатыря на дальних берегах (2012) BDRip-AVC | iPad

19 | 3

955.18 МБ

В этой теме нет новых непрочитанных сообщений. Три богатыря на дальних берегах (2012) BDRip 1080p

456 | 34

2.19 ГБ




Вы не можете начинать темы
Вы не можете отвечать на сообщения
Вы не можете редактировать свои сообщения
Вы не можете удалять свои сообщения
Вы не можете добавлять вложения

Перейти:  
Для Мосгорсуда, Роскомнадзора и рекламодателей: mosgorsud-torrent[собачка]yandex.ru
 Вход
ppkBB3cker v.2 © 2008-2014 @ PPK
[ Time : 0.034s | 15 Queries | GZIP : Off ]

cron