img image001 image001 image001 image001 image001 image001 image001 image001 image001 image001 image001 image001 image001 image001 image001

Planets Sun Sun Sun
Статистика раздачи
Автор: Снежана | Размер: 2.91 ГБ | Добавлен: 27 июл 2013
Раздают: 261    Качают: 21
Скачать торрент
Скачать торрент
Описание торрента

СообщениеДобавлено: 27 июл 2013 

Монстры на каникулах / Hotel Transylvania
(2012)
BDRip 1080p [Hi10P] от FREEISLAND




Жанр: мультфильм, комедия, семейный

Режиссер: Геннадий Тартаковский

Роли дублировали:
Сергей Бурунов (Dracula), Александр Пушной (Jonathan), Полина Гагарина (Mavis), Михаил Шац (Frankenstein), Дмитрий Полонский (Wayne), Татьяна Лазарева (Wanda), Алексей Колган (Murray), Никита Прозоровский (Quasimodo), Владимир Антоник (Suit of Armor), Диомид Виноградов (Fly), Даниил Эльдаров (Fake Dracula), Сергей Чихачев (Skeleton Husband)

Описание:
Граф Дракула для себя и своей любимой дочки построил хорошо укрытый от посторонних глаз отель, куда монстры со всего света приезжают отдохнуть от семейных забот, повседневной суеты и, конечно... людей. Но вездесущие американские туристы проникают и сюда.



Официальный сайт

Страна: США
Выпущено: Columbia Pictures, Sony Pictures Animation
Продолжительность: 1 ч. 22 м. 9 с. (титры обрезаны в целях экономии битрейта)
Перевод: Русский профессиональный (полное дублирование)
Оригинальная разбивка на главы: сохранена

Внимание!

Рип в High 10 Profile, в настоящее время не поддерживается большинством аппаратных проигрывателей.
Для корректного воспроизведения может потребоваться обновление ПО.
Владельцам несовместимого железа просьба не беспокоить, на трекере есть альтернативные релизы.

Качество: BDRip 1080p Hi10P (SSIM: 0.9850726)
Исходник: Blu-Ray Disc
Контейнер: MKV
Видео кодек: x264 High10@L5.1
Аудио кодек: AC-3
Видео: AVC at 4430 Кбит/сек, 1920 x 1058 (1.815) at 23.976 fps
Аудио: AC-3 at 640 Кбит/сек, 6 каналов, 48,0 КГц (DUB)
Субтитры: русские полные (SRT/UTF-8)


Общее
Уникальный идентификатор : 219170527047124635206685929601114936737 (0xA4E2B545D39A79BE8BDA128CC4B995A1)
Полное имя : Монстры на каникулах [Hotel Transylvania] (2012) BDRip-Hi10P 1080p by_F.HD.mkv
Формат : Matroska
Версия формата : Version 4 / Version 2
Размер файла : 2,91 Гбайт
Продолжительность : 1 ч. 22 м.
Общий поток : 5072 Кбит/сек
Название фильма : релиз от FREEISLAND.ORG
Дата кодирования : UTC 2013-02-16 20:12:03
Программа кодирования : mkvmerge v6.0.0 ('Coming Up For Air') built on Jan 20 2013 09:52:00
Библиотека кодирования : libebml v1.3.0 + libmatroska v1.4.0

Видео
Идентификатор : 1
Формат : AVC
Формат/Информация : Advanced Video Codec
Профиль формата : High 10@L5.1
Параметр CABAC формата : Да
Параметр ReFrames формата : 16 кадров
Идентификатор кодека : V_MPEG4/ISO/AVC
Продолжительность : 1 ч. 22 м.
Битрейт : 4430 Кбит/сек
Ширина : 1920 пикселей
Высота : 1058 пикселей
Соотношение сторон : 16:9
Частота кадров : 23,976 кадра/сек
Цветовое пространство : YUV
Субдискретизация насыщенности : 4:2:0
Битовая глубина : 10 бит
Тип развёртки : Прогрессивная
Бит/(Пиксели*Кадры) : 0.091
Размер потока : 2,49 Гбайт (85%)
Библиотека кодирования : x264 core 129 r2245+704+35 dbbd7a1 tMod [10-bit@all X86_64]
Настройки программы : cabac=1 / ref=16 / deblock=1:1:1 / analyse=0x3:0x133 / me=umh / subme=11 / psy=1 / fade_compensate=0.00 / psy_rd=1.00:0.15 / mixed_ref=1 / me_range=64 / chroma_me=1 / trellis=2 / 8x8dct=1 / cqm=0 / deadzone=21,11 / fast_pskip=0 / chroma_qp_offset=-3 / threads=12 / lookahead_threads=2 / sliced_threads=0 / nr=0 / decimate=1 / interlaced=0 / bluray_compat=0 / constrained_intra=0 / fgo=0 / bframes=8 / b_pyramid=2 / b_adapt=2 / b_bias=0 / direct=3 / weightb=1 / open_gop=0 / weightp=2 / keyint=272 / keyint_min=22 / scenecut=40 / intra_refresh=0 / rc_lookahead=0 / rc=2pass / mbtree=0 / bitrate=4430 / ratetol=1.0 / qcomp=1.00 / qpmin=0 / qpmax=48 / qpstep=4 / cplxblur=20.0 / qblur=0.5 / vbv_maxrate=240000 / vbv_bufsize=240000 / nal_hrd=none / ip_ratio=1.40 / pb_ratio=1.30 / aq=4:0.85
Default : Да
Forced : Нет
Основные цвета : BT.709-5, BT.1361, IEC 61966-2-4, SMPTE RP177
Характеристики трансфера : BT.709-5, BT.1361
Коэффициенты матрицы : BT.709-5, BT.1361, IEC 61966-2-4 709, SMPTE RP177

Аудио
Идентификатор : 2
Формат : AC-3
Формат/Информация : Audio Coding 3
Расширение режима : CM (complete main)
Идентификатор кодека : A_AC3
Продолжительность : 1 ч. 22 м.
Вид битрейта : Постоянный
Битрейт : 640 Кбит/сек
Каналы : 6 каналов
Расположение каналов : Front: L C R, Side: L R, LFE
Частота : 48,0 КГц
Битовая глубина : 16 бит
Метод сжатия : С потерями
Размер потока : 376 Мбайт (13%)
Заголовок : DUB
Язык : Russian
Default : Да
Forced : Нет

Текст
Идентификатор : 3
Формат : UTF-8
Идентификатор кодека : S_TEXT/UTF8
Идентификатор кодека/Информация : UTF-8 Plain Text
Заголовок : Full
Язык : Russian
Default : Нет
Forced : Нет

Меню
00:00:00.000 : :01
00:04:14.317 : :02
00:09:48.755 : :03
00:13:44.240 : :04
00:18:50.463 : :05
00:24:36.183 : :06
00:29:14.378 : :07
00:35:15.780 : :08
00:40:36.601 : :09
00:45:54.502 : :10
00:53:15.192 : :11
00:57:09.770 : :12
01:03:40.233 : :13
01:08:13.474 : :14
01:14:45.574 : :15
01:18:15.608 : :16











СЭМПЛ

Релиз от:

Если у вас возникают вопросы типа:
-почему у меня есть звук и отсутствует изображение?
-почему у меня рассыпается картинка?
-почему у меня картинка фонит синевой или зеленью?
-зачем и кому всё это нужно?
и тому подобные, читаем FAQ.
ссылка на FAQ запрещена правилами.

По этому, гуглим на тему спойлера (Что такое 10-ти битное видео (High 10 Profile - Hi10P), и как его смотреть?).



   Похожие торренты   Торрент   Размер 
В этой теме нет новых непрочитанных сообщений. Монстры на каникулах / Hotel Transylvania (2012) BDRip 1080p

739 | 48

4.37 ГБ

В этой теме нет новых непрочитанных сообщений. Монстры на каникулах / Hotel Transylvania (2012) BDRip 1080p от Youtracker | Лицензия

171 | 17

8.58 ГБ

В этой теме нет новых непрочитанных сообщений. Монстры на каникулах / Hotel Transylvania (2012) BDRip 1080p от Youtracker | 3D-Video | Лицензия

435 | 51

9.08 ГБ

В этой теме нет новых непрочитанных сообщений. Монстры на каникулах / Hotel Transylvania (2012) BDRemux 1080p от Youtracker | D

76 | 9

17.72 ГБ

В этой теме нет новых непрочитанных сообщений. Монстры на каникулах / Hotel Transylvania (2012) Blu-ray 1080p HDCLUB и Youtracker | D

14 | 13

29.84 ГБ

В этой теме нет новых непрочитанных сообщений. Монстры на каникулах / Hotel Transylvania (2012) BDRip-AVC

623 | 42

745.03 МБ

В этой теме нет новых непрочитанных сообщений. Монстры на каникулах 2 / Hotel Transylvania 2 (2015) BDRip 1080p | iTunes

2519 | 55

4.61 ГБ




Вы не можете начинать темы
Вы не можете отвечать на сообщения
Вы не можете редактировать свои сообщения
Вы не можете удалять свои сообщения
Вы не можете добавлять вложения

Перейти:  
Для Мосгорсуда, Роскомнадзора и рекламодателей: mosgorsud-torrent[собачка]yandex.ru
 Вход
ppkBB3cker v.2 © 2008-2014 @ PPK
[ Time : 0.027s | 14 Queries | GZIP : Off ]

Торрент трекер RUTOR.IN, Не можете зайти на rutor.org? Какой новый адрес рутор? Какое зеркало рутор? Не работает rutor.org и зеркала? Тогда наш торрент специально для вас. Rutor.in неофициальное зеркало rutor. В случае если у Вас заблокирован rutor или вдруг Вы не можете на него зайти, то Вы без труда сможете скачать бесплатно и без рекламы последние новинки кино, игр, сериалов и прочего у нас, на Rutor.in. Не нужно использовать прокси, чтобы зайти на рутор, достаточно воспользоваться нашим ресурсом. Все новые фильмы, игры, сериалы, книги и музыка за 2013 и 2014 годы через торрент бесплатно. Скачивайте фильмы в хорошем качестве, игры для пк, xbox, playstation без регистрации. У нас вы найдете новые Зарубежные сериалы и Русские сериалы 2013, 2014, 2015 годов. Оставайтесь с нами, качайте любимые фильмы, игры, сериалы, книги и музыку.