img image001 image001 image001 image001 image001 image001 image001 image001 image001 image001 image001 image001 image001 image001 image001

Planets Sun Sun Sun
Статистика раздачи
Автор: Снежана | Размер: 10.86 ГБ | Добавлен: 27 июл 2013
Раздают: 21    Качают: 3
Скачать торрент
Скачать торрент
Описание торрента

СообщениеДобавлено: 27 июл 2013 

Коралина в Стране Кошмаров в 3Д / Coraline 3D
«Бойтесь своих желаний»


#77

Страна: США
Студия: Laika Entertainment, Pandemonium
Жанр: мультфильм, фэнтези, триллер
Год выпуска: 2009
Продолжительность: 01:40:29

Перевод: русский дубляж [Лицензия, BD EUR] + украинский дубляж [Лицензия, R5]
Оригинальная аудиодорожка: английская
Русские субтитры: есть
Режиссер: Генри Селик / Henry Selick
Роли озвучивали: Дакота Фаннинг, Тери Хэтчер, Дженнифер Сoндерс, Доун Френч, Кит Дэвид, Джон Хуткман, Роберт Бэйли мл., Иэн МакШейн, Аанха Нил, Джордж Селик
Роли дублировали: Анна Штукатурова, Владимир Зайцев, Елена Соловьева, Елена Бушуева, Людмила Гнилова


Коралина, маленькая девочка, попадает в другой мир, скрытый за секретной дверцей. Этот мир — ее альтернативная жизнь, которая не перестает ее радовать, все здесь хорошо, но только до поры до времени. Однажды она понимает, что ее настоящим родителям за ее проделки угрожает смертельная опасность. Коралине придется найти выход из мира, наполненного призраками, в реальную жизнь…

Качество: BDRip 1080p
Контейнер: MKV
Формат 3D: Half OverUnder / Вертикальная анаморфная стереопара
Порядок ракурсов: левый ракурс первый
Поддержка автоматического запуска 3D на вашем TV (frame paking): нет
Видео кодек: x264
Аудио кодек: AC3
Видео: AVC / High@L4.1 / 2 pass / 23,976 fps / 1920x1080p / 14,0 Mbps / 0.282
Аудио 1: AC3 / 5.1 ch / 448 kbps / Русский дубляж BD EUR
Аудио 2: AC3 / 5.1 ch / 384 kbps / Украинский дубляж R5
Аудио 3: AC3 / 5.1 ch / 640 kbps / Английский original BD EUR
Субтитры: [softsub SRT]
Русские Forced (включены по умолчанию)
Русские Full
Украинские Forced
Украинские Full
Английские Full
Дополнительно: Сохранены оригинальные чаптеры как на Blu-ray
Рип от: HDMaNiAcS


Раздача от:








Проверено на оборудовании:
3D медиаплеер: iconBIT XDS73D
3D телевизор: 3D LED-Телевизор 40" Samsung UE40 ES6850M







x264 [info]: frame I:1253 Avg QP:12.53 size:360498
x264 [info]: frame P:36021 Avg QP:15.22 size:129490
x264 [info]: frame B:107283 Avg QP:15.88 size: 50645

Общее
Уникальный идентификатор : 247820217099600403082045883892897789154 (0xBA70700CB12FC3CB9BD7BBB8B4FDB4E2)
Полное имя : F:Скачка торрентCoraline.3D.2009.BDRip1080p.halfOU(HDMaNiAcS).mkv
Формат : Matroska
Версия формата : Version 4 / Version 2
Размер файла : 10,9 Гбайт
Продолжительность : 1 ч. 40 м.
Общий поток : 15,5 Мбит/сек
Название фильма : Coraline 3D (2009) by HDMaNiAcS
Дата кодирования : UTC 2010-02-22 21:41:31
Программа кодирования : mkvmerge v5.9.0 ('On The Loose') built on Dec 9 2012 15:37:01
Библиотека кодирования : libebml v1.3.0 + libmatroska v1.4.0

Видео
Идентификатор : 1
Формат : AVC
Формат/Информация : Advanced Video Codec
Профиль формата : High@L4.1
MultiView_Count : 2
MultiView_Layout : Top-Bottom (left eye first)
Параметр CABAC формата : Да
Параметр ReFrames формата : 4 кадра
Идентификатор кодека : V_MPEG4/ISO/AVC
Продолжительность : 1 ч. 40 м.
Битрейт : 14,0 Мбит/сек
Ширина : 1920 пикселей
Высота : 1080 пикселей
Соотношение сторон : 16:9
Режим частоты кадров : Постоянный
Частота кадров : 23,976 кадра/сек
Цветовое пространство : YUV
Субдискретизация насыщенности : 4:2:0
Битовая глубина : 8 бит
Тип развёртки : Прогрессивная
Бит/(Пиксели*Кадры) : 0.282
Размер потока : 9,61 Гбайт (88%)
Заголовок : Coraline 3D (2009)
Библиотека кодирования : x264 core 128 r2216 198a7ea
Настройки программы : cabac=1 / ref=4 / deblock=1:-2:-2 / analyse=0x3:0x113 / me=esa / subme=10 / psy=1 / psy_rd=0.80:0.00 / mixed_ref=1 / me_range=40 / chroma_me=1 / trellis=2 / 8x8dct=1 / cqm=0 / deadzone=21,11 / fast_pskip=1 / chroma_qp_offset=-2 / threads=12 / lookahead_threads=2 / sliced_threads=0 / nr=0 / decimate=0 / interlaced=0 / bluray_compat=0 / constrained_intra=0 / bframes=7 / b_pyramid=2 / b_adapt=2 / b_bias=0 / direct=3 / weightb=1 / open_gop=0 / weightp=2 / keyint=250 / keyint_min=23 / scenecut=40 / intra_refresh=0 / rc=2pass / mbtree=0 / bitrate=14000 / ratetol=1.0 / qcomp=0.65 / qpmin=0 / qpmax=69 / qpstep=4 / cplxblur=20.0 / qblur=0.5 / ip_ratio=1.35 / pb_ratio=1.20 / aq=1:0.80
Язык : English
Default : Да
Forced : Нет

Аудио #1
Идентификатор : 2
Формат : AC-3
Формат/Информация : Audio Coding 3
Расширение режима : CM (complete main)
Параметр Endianness формата : Big
Идентификатор кодека : A_AC3
Продолжительность : 1 ч. 40 м.
Вид битрейта : Постоянный
Битрейт : 448 Кбит/сек
Каналы : 6 каналов
Расположение каналов : Front: L C R, Side: L R, LFE
Частота : 48,0 КГц
Битовая глубина : 16 бит
Метод сжатия : С потерями
Размер потока : 322 Мбайт (3%)
Заголовок : AC3 / 5.1 ch / 448 kbps / Русский дубляж BD EUR
Язык : Russian
Default : Да
Forced : Нет

Аудио #2
Идентификатор : 3
Формат : AC-3
Формат/Информация : Audio Coding 3
Расширение режима : CM (complete main)
Параметр Endianness формата : Big
Идентификатор кодека : A_AC3
Продолжительность : 1 ч. 40 м.
Вид битрейта : Постоянный
Битрейт : 384 Кбит/сек
Каналы : 6 каналов
Расположение каналов : Front: L C R, Side: L R, LFE
Частота : 48,0 КГц
Битовая глубина : 16 бит
Метод сжатия : С потерями
Задержка видео : 2 с. 388 мс.
Размер потока : 276 Мбайт (2%)
Заголовок : AC3 / 5.1 ch / 384 kbps / Украинский дубляж R5
Язык : Ukrainian
Default : Нет
Forced : Нет

Аудио #3
Идентификатор : 4
Формат : AC-3
Формат/Информация : Audio Coding 3
Расширение режима : CM (complete main)
Параметр Endianness формата : Big
Идентификатор кодека : A_AC3
Продолжительность : 1 ч. 40 м.
Вид битрейта : Постоянный
Битрейт : 640 Кбит/сек
Каналы : 6 каналов
Расположение каналов : Front: L C R, Side: L R, LFE
Частота : 48,0 КГц
Битовая глубина : 16 бит
Метод сжатия : С потерями
Размер потока : 460 Мбайт (4%)
Заголовок : AC3 / 5.1 ch / 640 kbps / Английский original BD EUR
Язык : English
Default : Нет
Forced : Нет

Текст #1
Идентификатор : 5
Формат : UTF-8
Идентификатор кодека : S_TEXT/UTF8
Идентификатор кодека/Информация : UTF-8 Plain Text
Заголовок : Forced
Язык : Russian
Default : Да
Forced : Нет

Текст #2
Идентификатор : 6
Формат : UTF-8
Идентификатор кодека : S_TEXT/UTF8
Идентификатор кодека/Информация : UTF-8 Plain Text
Заголовок : Full
Язык : Russian
Default : Нет
Forced : Нет

Текст #3
Идентификатор : 7
Формат : UTF-8
Идентификатор кодека : S_TEXT/UTF8
Идентификатор кодека/Информация : UTF-8 Plain Text
Заголовок : Forced
Язык : Ukrainian
Default : Нет
Forced : Нет

Текст #4
Идентификатор : 8
Формат : UTF-8
Идентификатор кодека : S_TEXT/UTF8
Идентификатор кодека/Информация : UTF-8 Plain Text
Заголовок : Full
Язык : Ukrainian
Default : Нет
Forced : Нет

Текст #5
Идентификатор : 9
Формат : UTF-8
Идентификатор кодека : S_TEXT/UTF8
Идентификатор кодека/Информация : UTF-8 Plain Text
Заголовок : Full
Язык : English
Default : Нет
Forced : Нет

Меню
00:00:00.000 : en:00:00:00.000
00:08:12.283 : en:00:08:12.283
00:13:56.210 : en:00:13:56.210
00:18:26.731 : en:00:18:26.731
00:23:09.471 : en:00:23:09.471
00:26:45.771 : en:00:26:45.771
00:32:34.578 : en:00:32:34.578
00:36:57.173 : en:00:36:57.173
00:40:39.187 : en:00:40:39.187
00:44:19.907 : en:00:44:19.907
00:50:50.005 : en:00:50:50.005
00:55:04.551 : en:00:55:04.551
01:00:19.825 : en:01:00:19.825
01:05:54.868 : en:01:05:54.868
01:11:01.591 : en:01:11:01.591
01:15:23.686 : en:01:15:23.686
01:17:27.893 : en:01:17:27.893
01:21:20.709 : en:01:21:20.709
01:27:05.345 : en:01:27:05.345
01:34:42.635 : en:01:34:42.635








   Похожие торренты   Торрент   Размер 
В этой теме нет новых непрочитанных сообщений. Коралина в Cтране Кошмаров / Coraline (2009) BDRip 1080p | 3D-Video

1 | 5

6.48 ГБ

В этой теме нет новых непрочитанных сообщений. Коралина в Cтране Кошмаров / Coraline (2009) BDRip 720p | 3D-Video / Анаглиф

215 | 2

5.01 ГБ

В этой теме нет новых непрочитанных сообщений. Коралина в Cтране Кошмаров / Coraline (2009) BDRip 720p | 3D-video (Анаглиф)

11 | 3

2.57 ГБ

В этой теме нет новых непрочитанных сообщений. Коралина в Cтране Кошмаров / Coraline (2009) BDRip 1080p

90 | 5

4.37 ГБ

В этой теме нет новых непрочитанных сообщений. Коралина в Cтране Кошмаров / Coraline (2009) BDRip-AVC от DHT-Movies

17 | 6

2.89 ГБ

В этой теме нет новых непрочитанных сообщений. Коралина в Cтране Кошмаров / Coraline (2009) HDRip

35 | 7

1.46 ГБ

В этой теме нет новых непрочитанных сообщений. Коралина в Cтране Кошмаров / Coraline (2009) HDRip-AVC от R.G. AVI | AVC

86 | 4

2.05 ГБ




Вы не можете начинать темы
Вы не можете отвечать на сообщения
Вы не можете редактировать свои сообщения
Вы не можете удалять свои сообщения
Вы не можете добавлять вложения

Перейти:  
Для Мосгорсуда, Роскомнадзора и рекламодателей: mosgorsud-torrent[собачка]yandex.ru
 Вход
ppkBB3cker v.2 © 2008-2014 @ PPK
[ Time : 0.568s | 14 Queries | GZIP : Off ]

Торрент трекер RUTOR.IN, Не можете зайти на rutor.org? Какой новый адрес рутор? Какое зеркало рутор? Не работает rutor.org и зеркала? Тогда наш торрент специально для вас. Rutor.in неофициальное зеркало rutor. В случае если у Вас заблокирован rutor или вдруг Вы не можете на него зайти, то Вы без труда сможете скачать бесплатно и без рекламы последние новинки кино, игр, сериалов и прочего у нас, на Rutor.in. Не нужно использовать прокси, чтобы зайти на рутор, достаточно воспользоваться нашим ресурсом. Все новые фильмы, игры, сериалы, книги и музыка за 2013 и 2014 годы через торрент бесплатно. Скачивайте фильмы в хорошем качестве, игры для пк, xbox, playstation без регистрации. У нас вы найдете новые Зарубежные сериалы и Русские сериалы 2013, 2014, 2015 годов. Оставайтесь с нами, качайте любимые фильмы, игры, сериалы, книги и музыку.