img image001 image001 image001 image001 image001 image001 image001 image001 image001 image001 image001 image001 image001 image001 image001

Planets Sun Sun Sun
Статистика раздачи
Автор: Снежана | Размер: 8.66 ГБ | Добавлен: 27 июл 2013
Раздают: 12    Качают: 5
Скачать торрент
Скачать торрент
Описание торрента

СообщениеДобавлено: 27 июл 2013 

#77
Год выпуска: 2010
Страна: Канада, Корея Южная
Жанр: мультфильм, фантастика, семейный
Продолжительность: 26 х ~00:21:41

Перевод: Профессиональный (многоголосый, закадровый)
Оригинальная аудиодорожка: нет
Русские субтитры: нет

Режиссёр: Тим Дикон / Tim Deacon, Питер Лепениотис / Peter Lepeniotis

Роли озвучивали: Мелисса Альтро, Гленн Колсон, Стэйси ДеПасс, Ричард Фицпатрик, Колин Фокс, Патрик Гэрроу, Дуэйн Хилл, Мартин Жюльен, Терри Макгуррин, Мэтт Мюррэй...

Описание: Болт и Блип — два робота-чудака. Они живут на Луне и постоянно находят невероятные приключения на свои шестеренки. Впрочем, без приключений (а также без роботесс) скучно жить и роботу.





Раздача от:
Исходник: 5 х DVD5 R5 + DVD9 R5
Качество: DVDRip
Формат: AVI

Видео: 704x400 (16:9), 25 fps, XViD ~ 2000 kbps avg, 0.284 bit/pixel
Аудио: 48 kHz, AC3, 2 ch, 192.00 kbps, русский

Общее
Полное имя : Roboty.Bolt.i.Blip.2010.P.DVDRip_[Youtracker]_by_avproh�1.avi
Формат : AVI
Формат/Информация : Audio Video Interleave
Размер файла : 341 Мбайт
Продолжительность : 21 м.
Общий поток : 2200 Кбит/сек
Программа кодирования : VirtualDubMod 1.5.10.3 | www.virtualdub-fr.org || (build 2550/release)
Библиотека кодирования : VirtualDubMod build 2550/release

Видео
Идентификатор : 0
Формат : MPEG-4 Visual
Профиль формата : Advanced Simple@L5
Параметр BVOP формата : 1
Параметр QPel формата : Нет
Параметр GMC формата : Без точки перехода
Параметр матрицы формата : Выборочная
Идентификатор кодека : XVID
Идентификатор кодека/Подсказка : XviD
Продолжительность : 21 м.
Битрейт : 1998 Кбит/сек
Ширина : 704 пикселя
Высота : 400 пикселей
Соотношение сторон : 16:9
Частота кадров : 25,000 кадров/сек
Цветовое пространство : YUV
Субдискретизация насыщенности : 4:2:0
Битовая глубина : 8 бит
Тип развёртки : Прогрессивная
Метод сжатия : С потерями
Бит/(Пиксели*Кадры) : 0.284
Размер потока : 310 Мбайт (91%)
Библиотека кодирования : XviD 64

Аудио
Идентификатор : 1
Формат : AC-3
Формат/Информация : Audio Coding 3
Расширение режима : CM (complete main)
Параметр Endianness формата : Big
Идентификатор кодека : 2000
Продолжительность : 21 м.
Вид битрейта : Постоянный
Битрейт : 192 Кбит/сек
Каналы : 2 канала
Расположение каналов : Front: L R
Частота : 48,0 КГц
Битовая глубина : 16 бит
Метод сжатия : С потерями
Размер потока : 29,8 Мбайт (9%)
Выравнивание : Разделение по промежуткам
Продолжительность промежутка : 40 мс. (1,00 видеокадр)
Время предзагрузки промежутка : 500 мс.





   Похожие торренты   Торрент   Размер 
В этой теме нет новых непрочитанных сообщений. Роботы Болт и Блип / Болт и Блип спешат на помощь / Bolts & Blip [01x01-26 из 26] (2010) 7DVD5 от Youtracker

0 | 3

28.05 ГБ

В этой теме нет новых непрочитанных сообщений. Роботы Болт и Блип / Bolts & Blip [01x01-26 из 26] (2010) DVDRip-AVC от Youtracker | P

9 | 3

8.65 ГБ

В этой теме нет новых непрочитанных сообщений. Болт и Блип спешат на помощь / Bolt & Blip: Battle of the Lunar League (2011) DVDRip-AVC от Youtracker | D

18 | 1

1.46 ГБ

В этой теме нет новых непрочитанных сообщений. Болт и Блип спешат на помощь / Bolt & Blip: Battle of the Lunar League (2011) DVDRip от Youtracker | D

6 | 3

744.98 МБ

В этой теме нет новых непрочитанных сообщений. Болт и Блип спешат на помощь / Bolt & Blip: Battle of the Lunar League (2011) DVDRip от Youtracker | D

5 | 2

1.46 ГБ

В этой теме нет новых непрочитанных сообщений. Болт и Блип спешат на помощь / Bolt & Blip: Battle of the Lunar League (2012) DVD5

6 | 4

3.76 ГБ

В этой теме нет новых непрочитанных сообщений. Болт и Блип спешат на помощь / Bolt & Blip: Battle of the Lunar League (2011) HDTV (1080i) от CMEGRoup

13 | 5

3.55 ГБ




Вы не можете начинать темы
Вы не можете отвечать на сообщения
Вы не можете редактировать свои сообщения
Вы не можете удалять свои сообщения
Вы не можете добавлять вложения

Перейти:  
Для Мосгорсуда, Роскомнадзора и рекламодателей: mosgorsud-torrent[собачка]yandex.ru
 Вход
ppkBB3cker v.2 © 2008-2014 @ PPK
[ Time : 0.030s | 14 Queries | GZIP : Off ]

Торрент трекер RUTOR.IN, Не можете зайти на rutor.org? Какой новый адрес рутор? Какое зеркало рутор? Не работает rutor.org и зеркала? Тогда наш торрент специально для вас. Rutor.in неофициальное зеркало rutor. В случае если у Вас заблокирован rutor или вдруг Вы не можете на него зайти, то Вы без труда сможете скачать бесплатно и без рекламы последние новинки кино, игр, сериалов и прочего у нас, на Rutor.in. Не нужно использовать прокси, чтобы зайти на рутор, достаточно воспользоваться нашим ресурсом. Все новые фильмы, игры, сериалы, книги и музыка за 2013 и 2014 годы через торрент бесплатно. Скачивайте фильмы в хорошем качестве, игры для пк, xbox, playstation без регистрации. У нас вы найдете новые Зарубежные сериалы и Русские сериалы 2013, 2014, 2015 годов. Оставайтесь с нами, качайте любимые фильмы, игры, сериалы, книги и музыку.