img image001 image001 image001 image001 image001 image001 image001 image001 image001 image001 image001 image001 image001 image001 image001

Planets Sun Sun Sun
Статистика раздачи
Автор: Снежана | Размер: 515.77 МБ | Добавлен: 27 июл 2013
Раздают: 524    Качают: 7
Скачать торрент
Скачать торрент
Описание торрента

СообщениеДобавлено: 27 июл 2013 


Информация о фильме
Название: Хроники Риддика: Тёмная ярость
Оригинальное название: Chronicles of Riddick: Dark Fury
Год выхода: 2004
Жанр: Мультфильм, короткометражка, фантастика, боевик
Режиссер: Питер Чунг / Peter Chung
В ролях (озвучка): Вин Дизель, Кит Дэвид, Ник Чинлунд, Тресс МакНилл, Дуайт Шульц, Хеди Барресс, Рик Гомес
Описание: Риддика захватывают наемные убийцы, и теперь ему предстоит вступить в смертельную схватку против «солдат удачи» и ужасных монстров в многочисленных лабиринтах огромного космического корабля…

Страна: США, Universal Home Video Inc. , Universal Pictures
Продолжительность: 00:33:31
Перевод: Профессиональный (многоголосый, закадровый)
Файл
Качество: DVDRip-AVC
Формат: MKV
Видео: AVC, 720х400, 1 764 Kbps, 16:9, 25.000 fps
Звук: Русский, 384Kbps, 6 channels, Front: L C R, Side: L R, LFE, 48.0 KHz

General
Unique ID : 195722155171169459750098384111114610678 (0x933EB748008EAFD682D345B57B5F67F6)
Complete name : Хроники Риддика_Темная ярость DVDRip.mkv
Format : Matroska
File size : 516 MiB
Duration : 33mn 31s
Overall bit rate : 2 151 Kbps
Encoded date : UTC 2013-02-20 01:57:30
Writing application : mkvmerge v2.4.0 ('Fumbling Towards Ecstasy') built on Oct 11 2008 20:13:15
Writing library : libebml v0.7.7 + libmatroska v0.8.1
Video #1
ID : 1
Format : AVC
Format/Info : Advanced Video Codec
Format profile : High@L5.1
Format settings, CABAC : No
Format settings, ReFrames : 3 frames
Codec ID : V_MPEG4/ISO/AVC
Duration : 33mn 31s
Bit rate : 1 764 Kbps
Width : 720 pixels
Height : 400 pixels
Display aspect ratio : 16:9
Frame rate : 25.000 fps
Color space : YUV
Chroma subsampling : 4:2:0
Bit depth : 8 bits
Scan type : Progressive
Bits/(Pixel*Frame) : 0.245
Stream size : 413 MiB (80%)
Writing library : x264 core 65 r999kMod cc51047
Encoding settings : cabac=0 / ref=3 / deblock=1:0:0 / analyse=0x3:0x133 / me=umh / subme=8 / psy_rd=1.0:0.0 / mixed_ref=1 / me_range=16 / chroma_me=1 / trellis=0 / 8x8dct=1 / cqm=0 / deadzone=21,11 / chroma_qp_offset=-2 / threads=1 / thread_queue=1 / nr=0 / decimate=1 / mbaff=0 / bframes=2 / b_pyramid=1 / b_adapt=1 / b_bias=0 / direct=3 / wpredb=1 / keyint=250 / keyint_min=25 / scenecut=40 / rc=2pass / bitrate=1764 / ratetol=1.0 / qcomp=0.60 / qpmin=10 / qpmax=51 / qpstep=4 / cplxblur=20.0 / qblur=0.5 / ip_ratio=1.40 / pb_ratio=1.30 / aq=1:1.00
Audio #2
ID : 2
Format : AC-3
Format/Info : Audio Coding 3
Mode extension : CM (complete main)
Codec ID : A_AC3
Duration : 33mn 31s
Bit rate mode : Constant
Bit rate : 384 Kbps
Channel(s) : 6 channels
Channel positions : Front: L C R, Side: L R, LFE
Sampling rate : 48.0 KHz
Bit depth : 16 bits
Compression mode : Lossy
Stream size : 92.1 MiB (18%)


Релиз от:



   Похожие торренты   Торрент   Размер 
В этой теме нет новых непрочитанных сообщений. Хроники Риддика: Тёмная ярость / Chronicles of Riddick: Dark Fury (2004) DVD5 от Youtracker | P | Лицензия

7 | 4

3.96 ГБ

В этой теме нет новых непрочитанных сообщений. Хроники Риддика / The Chronicles of Riddick (2004) DVD9 от New-Team | D | Лицензия

3 | 6

6.58 ГБ

В этой теме нет новых непрочитанных сообщений. Хроники Риддика / Chronicles of Riddick (2004) DVDRip от AndrewWhite

10 | 5

2.18 ГБ

В этой теме нет новых непрочитанных сообщений. Хроники Риддика / The chronicles of Riddick (2004) HD-DVDRip от HELLYWOOD | Режиссёрская версия / Unrated Director's Cut

79 | 10

2.18 ГБ

В этой теме нет новых непрочитанных сообщений. Хроники Риддика / Chronicles of Riddick (2004) DVD5

7 | 5

4.02 ГБ

В этой теме нет новых непрочитанных сообщений. Чёрная дыра + Хроники Риддика / Pitch Black + The Chronicles of Riddick (1999-2004) 2xDVD9 + DVD5 от New-Team | D, P | Лицензия

39 | 23

18.89 ГБ

В этой теме нет новых непрочитанных сообщений. Хроники Риддика / The Chronicles of Riddick (2004) BDRip от HQCLUB

145 | 8

2.18 ГБ




Вы не можете начинать темы
Вы не можете отвечать на сообщения
Вы не можете редактировать свои сообщения
Вы не можете удалять свои сообщения
Вы не можете добавлять вложения

Перейти:  
Для Мосгорсуда, Роскомнадзора и рекламодателей: mosgorsud-torrent[собачка]yandex.ru
 Вход
ppkBB3cker v.2 © 2008-2014 @ PPK
[ Time : 0.050s | 15 Queries | GZIP : On ]

Торрент трекер RUTOR.IN, Не можете зайти на rutor.org? Какой новый адрес рутор? Какое зеркало рутор? Не работает rutor.org и зеркала? Тогда наш торрент специально для вас. Rutor.in неофициальное зеркало rutor. В случае если у Вас заблокирован rutor или вдруг Вы не можете на него зайти, то Вы без труда сможете скачать бесплатно и без рекламы последние новинки кино, игр, сериалов и прочего у нас, на Rutor.in. Не нужно использовать прокси, чтобы зайти на рутор, достаточно воспользоваться нашим ресурсом. Все новые фильмы, игры, сериалы, книги и музыка за 2013 и 2014 годы через торрент бесплатно. Скачивайте фильмы в хорошем качестве, игры для пк, xbox, playstation без регистрации. У нас вы найдете новые Зарубежные сериалы и Русские сериалы 2013, 2014, 2015 годов. Оставайтесь с нами, качайте любимые фильмы, игры, сериалы, книги и музыку.