img image001 image001 image001 image001 image001 image001 image001 image001 image001 image001 image001 image001 image001 image001 image001

Planets Sun Sun Sun
Статистика раздачи
Автор: Снежана | Размер: 4.37 ГБ | Добавлен: 27 июл 2013
Раздают: 231    Качают: 6
Скачать торрент
Скачать торрент
Описание торрента

СообщениеДобавлено: 27 июл 2013 

Маугли


Год выпуска: 1973
Страны: СССР
Жанры: мультфильм, приключения, семейный
Продолжительность: 01:35:40
Режиссер: Роман Давыдов
Перевод: Оригинал
В ролях:
Степан Бубнов, Людмила Касаткина, Юрий Хржановский, Лев Любецкий, Сергей Мартинсон, Александр Назаров, Люсьена Овчинникова, Анатолий Папанов, Юрий Пузырев, Владимир Ушаков

Описание:
Одноимённая экранизация повести Киплинга о мальчике, воспитанном волчьей стаей, ставшим своим в джунглях, победившим своего врага - тигра Шерхана, совершившем ещё многие подвиги, и, в конце концов, ушедшем к людям.

Предлагаем Вам отправиться в захватывающее путешествие по страницам знаменитой книги Редьярда Киплинга, блистательно экранизированной в 1973 году на киностудии "Союзмультфильм" Романом Владимировичем Давыдовым - создателем таких известных мультфильмов, как "Василиса Микулишна" (1975), "Мальчик с пальчик" (1977), "Последняя невеста Змея Горыныча" (1978).



Качество: BDRip 1080p (источник: Blu-ray Disc)
Формат: MKV
Видео кодек: H.264 (AVC)
Аудио кодек: AC3
Видео: 1456x1080, 6085 Kbps, 25,000 fps
Звук: 48 kHz, AC3, 6c, 448 kbps
Субтитры: Нет

Скачать Семпл



Общее
Уникальный идентификатор : 231980011700895622896878483070265646619 (0xAE85B9A060755E68994507587620DE1B)
Формат : Matroska
Версия формата : Version 4 / Version 2
Размер файла : 4,37 Гбайт
Продолжительность : 1 ч. 35 м.
Общий поток : 6534 Кбит/сек
Дата кодирования : UTC 2013-02-20 10:05:21
Программа кодирования : mkvmerge v6.0.0 ('Coming Up For Air') built on Jan 20 2013 09:52:00
Библиотека кодирования : libebml v1.3.0 + libmatroska v1.4.0

Видео
Идентификатор : 1
Формат : AVC
Формат/Информация : Advanced Video Codec
Профиль формата : High@L4.1
Параметр CABAC формата : Да
Параметр ReFrames формата : 4 кадра
Идентификатор кодека : V_MPEG4/ISO/AVC
Продолжительность : 1 ч. 35 м.
Битрейт : 6085 Кбит/сек
Ширина : 1456 пикселей
Высота : 1080 пикселей
Соотношение сторон : 4:3
Режим частоты кадров : Постоянный
Частота кадров : 25,000 кадров/сек
Цветовое пространство : YUV
Субдискретизация насыщенности : 4:2:0
Битовая глубина : 8 бит
Тип развёртки : Прогрессивная
Бит/(Пиксели*Кадры) : 0.155
Размер потока : 3,98 Гбайт (91%)
Заголовок : Rip by Dimok
Библиотека кодирования : x264 core 125 r2208 d9d2288
Настройки программы : cabac=1 / ref=4 / deblock=1:0:0 / analyse=0x3:0x133 / me=umh / subme=11 / psy=1 / psy_rd=1.00:0.50 / mixed_ref=1 / me_range=32 / chroma_me=1 / trellis=2 / 8x8dct=1 / cqm=0 / deadzone=21,11 / fast_pskip=0 / chroma_qp_offset=-2 / threads=12 / lookahead_threads=2 / sliced_threads=0 / slices=2 / nr=0 / decimate=0 / interlaced=0 / bluray_compat=0 / constrained_intra=0 / bframes=3 / b_pyramid=2 / b_adapt=2 / b_bias=0 / direct=3 / weightb=1 / open_gop=0 / weightp=2 / keyint=250 / keyint_min=25 / scenecut=40 / intra_refresh=0 / rc_lookahead=69 / rc=2pass / mbtree=1 / bitrate=6085 / ratetol=1.0 / qcomp=0.61 / qpmin=1 / qpmax=69 / qpstep=4 / cplxblur=20.0 / qblur=0.5 / ip_ratio=1.40 / aq=2:1.00
Язык : English
Default : Да
Forced : Нет

Аудио
Идентификатор : 2
Формат : AC-3
Формат/Информация : Audio Coding 3
Расширение режима : CM (complete main)
Параметр Endianness формата : Big
Идентификатор кодека : A_AC3
Продолжительность : 1 ч. 35 м.
Вид битрейта : Постоянный
Битрейт : 448 Кбит/сек
Каналы : 6 каналов
Расположение каналов : Front: L C R, Side: L R, LFE
Частота : 48,0 КГц
Битовая глубина : 16 бит
Метод сжатия : С потерями
Размер потока : 307 Мбайт (7%)
Заголовок : Оригинал
Язык : Russian
Default : Да
Forced : Нет

Меню
00:00:00.000 : :Chapter 01
00:04:47.786 : :Chapter 02
00:08:39.935 : :Chapter 03
00:14:51.724 : :Chapter 04
00:19:51.190 : :Chapter 05
00:24:43.315 : :Chapter 06
00:33:22.333 : :Chapter 07
00:41:11.469 : :Chapter 08
00:44:51.271 : :Chapter 09
00:48:32.451 : :Chapter 10
00:51:31.630 : :Chapter 11
00:53:02.387 : :Chapter 12
00:58:25.960 : :Chapter 13
01:03:13.747 : :Chapter 14
01:05:48.861 : :Chapter 15
01:12:34.475 : :Chapter 16
01:20:00.420 : :Chapter 17
01:23:13.822 : :Chapter 18
01:33:10.292 : :Chapter 19
x264 [info]: frame I:1056 Avg QP:18.39 size:140091
x264 [info]: frame P:45423 Avg QP:21.43 size: 57940
x264 [info]: frame B:97031 Avg QP:22.88 size: 16346



   Похожие торренты   Торрент   Размер 
В этой теме нет новых непрочитанных сообщений. Маугли (1973) BDRip от HQCLUB

120 | 22

1.77 ГБ

В этой теме нет новых непрочитанных сообщений. Маугли (1973) BDRip 720p от FREEISLAND

11 | 8

4.37 ГБ

В этой теме нет новых непрочитанных сообщений. Маугли (1973) BDRip 1080 от HDReactor

35 | 11

7.01 ГБ

В этой теме нет новых непрочитанных сообщений. Маугли (1973) DVDRip

485 | 22

1.14 ГБ

В этой теме нет новых непрочитанных сообщений. Маугли (1973) DVDRip

51 | 4

2.62 ГБ

В этой теме нет новых непрочитанных сообщений. Маугли (1973) DVDRip

72 | 4

702.14 МБ

В этой теме нет новых непрочитанных сообщений. Маугли (1973) DVDRip от MediaClub | КПК

94 | 6

432.04 МБ




Вы не можете начинать темы
Вы не можете отвечать на сообщения
Вы не можете редактировать свои сообщения
Вы не можете удалять свои сообщения
Вы не можете добавлять вложения

Перейти:  
Для Мосгорсуда, Роскомнадзора и рекламодателей: mosgorsud-torrent[собачка]yandex.ru
 Вход
ppkBB3cker v.2 © 2008-2014 @ PPK
[ Time : 0.673s | 14 Queries | GZIP : Off ]

Торрент трекер RUTOR.IN, Не можете зайти на rutor.org? Какой новый адрес рутор? Какое зеркало рутор? Не работает rutor.org и зеркала? Тогда наш торрент специально для вас. Rutor.in неофициальное зеркало rutor. В случае если у Вас заблокирован rutor или вдруг Вы не можете на него зайти, то Вы без труда сможете скачать бесплатно и без рекламы последние новинки кино, игр, сериалов и прочего у нас, на Rutor.in. Не нужно использовать прокси, чтобы зайти на рутор, достаточно воспользоваться нашим ресурсом. Все новые фильмы, игры, сериалы, книги и музыка за 2013 и 2014 годы через торрент бесплатно. Скачивайте фильмы в хорошем качестве, игры для пк, xbox, playstation без регистрации. У нас вы найдете новые Зарубежные сериалы и Русские сериалы 2013, 2014, 2015 годов. Оставайтесь с нами, качайте любимые фильмы, игры, сериалы, книги и музыку.