img image001 image001 image001 image001 image001 image001 image001 image001 image001 image001 image001 image001 image001 image001 image001

Planets Sun Sun Sun
Статистика раздачи
Автор: Снежана | Размер: 4.38 ГБ | Добавлен: 27 июл 2013
Раздают: 53    Качают: 7
Скачать торрент
Скачать торрент
Описание торрента

СообщениеДобавлено: 27 июл 2013 

Долина папоротников: Последний тропический лес / FernGully: The Last Rainforest


Год выпуска: 1992
Страны: США, Австралия | FAI Films, Youngheart Productions
Жанры: мультфильм, фэнтези, приключения, семейный
Продолжительность: 01:15:52
Режиссер: Билл Кройер
Перевод:
Двухголосый закадровый | R5
Двухголосый закадровый Пётр Гланц и Инна Королева
Одноголосый закадровый Алексей Михалёв
Одноголосый закадровый Андрей Гаврилов
Оригинал

В ролях:
им Карри, Саманта Мэтис, Кристиан Слэйтер, Джонатан Уорд, Робин Уильямс, Грейс Забриски, Джеффри Блейк, Роберт Пасторелли, Чич Марин, Томми Чонг

Описание:
Хексус — это злой дух. Его задача — причинять боль и страдания. Он появился из раскаленного ядра Земли и принялся уничтожать сказочно красивый тропический лес, населенный забавными мистическими существами. Только объединившись и обратив свои мольбы к магическим силам природы, жителям леса удалось заточить Хексуса в одно из деревьев.
Но скоро зверушки опять сталкиваются со смертельной опасностью, на сей раз исходящей со стороны людей, занимающихся вырубкой лесов. Своими мощными бульдозерами люди сносят подкорень вековые деревья, не подозревая о том, что в одном из них своего часа дожидается мощнейшая безжалостная сила, несущая смерть всему живому.
Но наши маленькие герои проявляют чудеса смекалки и с юмором расправляются со всеми своими обидчиками.



Качество: BDRip 1080p (источник: Blu-ray Disc)
Формат: MKV
Видео кодек: H.264 (AVC)
Аудио кодек: AC3
Видео: 1920x1040, 5315 Kbps, 23,976 fps
Звук: 48 kHz, AC3, 6c, 384 kbps Двухголосый закадровый | R5
Звук: 48 kHz, AC3, 6c, 640 kbps Двухголосый закадровый Пётр Гланц и Инна Королева
Звук: 48 kHz, AC3, 6c, 640 kbps Одноголосый закадровый Алексей Михалёв
Звук: 48 kHz, AC3, 6c, 640 kbps Одноголосый закадровый Андрей Гаврилов
Звук: 48 kHz, AC3, 6c, 640 kbps Оригинал
Субтитры: Русские, Английские

Скачать Семпл



Общее
Уникальный идентификатор : 171299145545334723372436804678186217315 (0x80DF03F04BB037E89172D02B90B4AF63)
Формат : Matroska
Версия формата : Version 4 / Version 2
Размер файла : 4,38 Гбайт
Продолжительность : 1 ч. 15 м.
Общий поток : 8257 Кбит/сек
Дата кодирования : UTC 2013-02-24 09:23:56
Программа кодирования : mkvmerge v6.0.0 ('Coming Up For Air') built on Jan 20 2013 09:52:00
Библиотека кодирования : libebml v1.3.0 + libmatroska v1.4.0

Видео
Идентификатор : 1
Формат : AVC
Формат/Информация : Advanced Video Codec
Профиль формата : High@L4.1
Параметр CABAC формата : Да
Параметр ReFrames формата : 4 кадра
Идентификатор кодека : V_MPEG4/ISO/AVC
Продолжительность : 1 ч. 15 м.
Битрейт : 5315 Кбит/сек
Ширина : 1920 пикселей
Высота : 1040 пикселей
Соотношение сторон : 1,85:1
Режим частоты кадров : Постоянный
Частота кадров : 23,976 кадра/сек
Цветовое пространство : YUV
Субдискретизация насыщенности : 4:2:0
Битовая глубина : 8 бит
Тип развёртки : Прогрессивная
Бит/(Пиксели*Кадры) : 0.111
Размер потока : 2,73 Гбайт (62%)
Заголовок : Rip by Dimok
Библиотека кодирования : x264 core 129 r2245 bc13772
Настройки программы : cabac=1 / ref=4 / deblock=1:0:0 / analyse=0x3:0x133 / me=umh / subme=11 / psy=1 / psy_rd=1.00:0.50 / mixed_ref=1 / me_range=32 / chroma_me=1 / trellis=2 / 8x8dct=1 / cqm=0 / deadzone=21,11 / fast_pskip=0 / chroma_qp_offset=-2 / threads=12 / lookahead_threads=2 / sliced_threads=0 / slices=2 / nr=0 / decimate=0 / interlaced=0 / bluray_compat=0 / constrained_intra=0 / bframes=3 / b_pyramid=2 / b_adapt=2 / b_bias=0 / direct=3 / weightb=1 / open_gop=0 / weightp=2 / keyint=240 / keyint_min=23 / scenecut=40 / intra_refresh=0 / rc_lookahead=69 / rc=2pass / mbtree=1 / bitrate=5315 / ratetol=1.0 / qcomp=0.61 / qpmin=1 / qpmax=69 / qpstep=4 / cplxblur=20.0 / qblur=0.5 / ip_ratio=1.40 / aq=2:1.00
Язык : English
Default : Да
Forced : Нет

Аудио #1
Идентификатор : 2
Формат : AC-3
Формат/Информация : Audio Coding 3
Расширение режима : CM (complete main)
Параметр Endianness формата : Big
Идентификатор кодека : A_AC3
Продолжительность : 1 ч. 15 м.
Вид битрейта : Постоянный
Битрейт : 384 Кбит/сек
Каналы : 6 каналов
Расположение каналов : Front: L C R, Side: L R, LFE
Частота : 48,0 КГц
Битовая глубина : 16 бит
Метод сжатия : С потерями
Размер потока : 208 Мбайт (5%)
Заголовок : Двухголосый закадровый | R5
Язык : Russian
Default : Да
Forced : Нет

Аудио #2
Идентификатор : 3
Формат : AC-3
Формат/Информация : Audio Coding 3
Расширение режима : CM (complete main)
Параметр Endianness формата : Big
Идентификатор кодека : A_AC3
Продолжительность : 1 ч. 15 м.
Вид битрейта : Постоянный
Битрейт : 640 Кбит/сек
Каналы : 6 каналов
Расположение каналов : Front: L C R, Side: L R, LFE
Частота : 48,0 КГц
Битовая глубина : 16 бит
Метод сжатия : С потерями
Размер потока : 347 Мбайт (8%)
Заголовок : Двухголосый закадровый Пётр Гланц и Инна Королева
Язык : Russian
Default : Нет
Forced : Нет

Аудио #3
Идентификатор : 4
Формат : AC-3
Формат/Информация : Audio Coding 3
Расширение режима : CM (complete main)
Параметр Endianness формата : Big
Идентификатор кодека : A_AC3
Продолжительность : 1 ч. 15 м.
Вид битрейта : Постоянный
Битрейт : 640 Кбит/сек
Каналы : 6 каналов
Расположение каналов : Front: L C R, Side: L R, LFE
Частота : 48,0 КГц
Битовая глубина : 16 бит
Метод сжатия : С потерями
Размер потока : 347 Мбайт (8%)
Заголовок : Одноголосый закадровый Алексей Михалёв
Язык : Russian
Default : Нет
Forced : Нет

Аудио #4
Идентификатор : 5
Формат : AC-3
Формат/Информация : Audio Coding 3
Расширение режима : CM (complete main)
Параметр Endianness формата : Big
Идентификатор кодека : A_AC3
Продолжительность : 1 ч. 15 м.
Вид битрейта : Постоянный
Битрейт : 640 Кбит/сек
Каналы : 6 каналов
Расположение каналов : Front: L C R, Side: L R, LFE
Частота : 48,0 КГц
Битовая глубина : 16 бит
Метод сжатия : С потерями
Размер потока : 347 Мбайт (8%)
Заголовок : Одноголосый закадровый Андрей Гаврилов
Язык : Russian
Default : Нет
Forced : Нет

Аудио #5
Идентификатор : 6
Формат : AC-3
Формат/Информация : Audio Coding 3
Расширение режима : CM (complete main)
Параметр Endianness формата : Big
Идентификатор кодека : A_AC3
Продолжительность : 1 ч. 15 м.
Вид битрейта : Постоянный
Битрейт : 640 Кбит/сек
Каналы : 6 каналов
Расположение каналов : Front: L C R, Side: L R, LFE
Частота : 48,0 КГц
Битовая глубина : 16 бит
Метод сжатия : С потерями
Размер потока : 347 Мбайт (8%)
Заголовок : Оригинал
Язык : English
Default : Нет
Forced : Нет

Текст #1
Идентификатор : 7
Формат : UTF-8
Идентификатор кодека : S_TEXT/UTF8
Идентификатор кодека/Информация : UTF-8 Plain Text
Заголовок : RUS
Язык : Russian
Default : Да
Forced : Нет

Текст #2
Идентификатор : 8
Формат : UTF-8
Идентификатор кодека : S_TEXT/UTF8
Идентификатор кодека/Информация : UTF-8 Plain Text
Заголовок : ENG
Язык : English
Default : Нет
Forced : Нет

Меню
00:00:00.000 : en:00:00:00.000
00:03:19.074 : en:00:03:19.074
00:04:49.831 : en:00:04:49.831
00:06:34.853 : en:00:06:34.853
00:09:12.677 : en:00:09:12.677
00:11:27.729 : en:00:11:27.729
00:15:18.751 : en:00:15:18.751
00:18:55.301 : en:00:18:55.301
00:23:27.823 : en:00:23:27.823
00:26:58.283 : en:00:26:58.283
00:30:53.435 : en:00:30:53.435
00:32:51.845 : en:00:32:51.845
00:35:45.268 : en:00:35:45.268
00:39:26.447 : en:00:39:26.447
00:42:58.659 : en:00:42:58.659
00:45:46.702 : en:00:45:46.702
00:49:01.355 : en:00:49:01.355
00:53:27.704 : en:00:53:27.704
00:57:58.392 : en:00:57:58.392
00:59:48.543 : en:00:59:48.543
01:03:26.052 : en:01:03:26.052
01:05:50.697 : en:01:05:50.697
01:08:09.043 : en:01:08:09.043
01:10:35.690 : en:01:10:35.690
x264 [info]: frame I:836 Avg QP:22.93 size:129465
x264 [info]: frame P:35897 Avg QP:26.33 size: 45231
x264 [info]: frame B:72420 Avg QP:27.62 size: 17804



   Похожие торренты   Торрент   Размер 
В этой теме нет новых непрочитанных сообщений. Долина папоротников: Последний тропический лес / FernGully: The Last Rainforest (1992) BDRip 1080p | 60 fps | P2

20 | 4

6.78 ГБ

В этой теме нет новых непрочитанных сообщений. Долина папоротников: Последний тропический лес / FernGully: The Last Rainforest (1992) BDRemux

1 | 2

24.22 ГБ

В этой теме нет новых непрочитанных сообщений. Долина Папоротников. Последний тропический лес / FernGully: The Last Rainforest (1992) HDRip | КПК

0 | 2

308.75 МБ

В этой теме нет новых непрочитанных сообщений. Долина Папоротников. Последний тропический лес / FernGully: The Last Rainforest (1992) HDTVRip 720p

8 | 3

4.08 ГБ

В этой теме нет новых непрочитанных сообщений. Долина папоротников: Последний тропический лес / FernGully: The Last Rainforest (1992) HDTVRip от HELLYWOOD

14 | 10

1.84 ГБ

В этой теме нет новых непрочитанных сообщений. Долина Папоротников 2: Волшебное спасение / FernGully 2: The Magical Rescue (1998) DVDRip

9 | 12

743.52 МБ

В этой теме нет новых непрочитанных сообщений. Долина Папоротников 2: Волшебное спасение / FernGully 2: The Magical Rescue (1998) HDRip | КПК

1 | 6

294.82 МБ




Вы не можете начинать темы
Вы не можете отвечать на сообщения
Вы не можете редактировать свои сообщения
Вы не можете удалять свои сообщения
Вы не можете добавлять вложения

Перейти:  
Для Мосгорсуда, Роскомнадзора и рекламодателей: mosgorsud-torrent[собачка]yandex.ru
 Вход
ppkBB3cker v.2 © 2008-2014 @ PPK
[ Time : 0.034s | 15 Queries | GZIP : Off ]

Торрент трекер RUTOR.IN, Не можете зайти на rutor.org? Какой новый адрес рутор? Какое зеркало рутор? Не работает rutor.org и зеркала? Тогда наш торрент специально для вас. Rutor.in неофициальное зеркало rutor. В случае если у Вас заблокирован rutor или вдруг Вы не можете на него зайти, то Вы без труда сможете скачать бесплатно и без рекламы последние новинки кино, игр, сериалов и прочего у нас, на Rutor.in. Не нужно использовать прокси, чтобы зайти на рутор, достаточно воспользоваться нашим ресурсом. Все новые фильмы, игры, сериалы, книги и музыка за 2013 и 2014 годы через торрент бесплатно. Скачивайте фильмы в хорошем качестве, игры для пк, xbox, playstation без регистрации. У нас вы найдете новые Зарубежные сериалы и Русские сериалы 2013, 2014, 2015 годов. Оставайтесь с нами, качайте любимые фильмы, игры, сериалы, книги и музыку.
cron