img image001 image001 image001 image001 image001 image001 image001 image001 image001 image001 image001 image001 image001 image001 image001

Planets Sun Sun Sun
Статистика раздачи
Автор: Снежана | Размер: 744.25 МБ | Добавлен: 28 июл 2013
Раздают: 9    Качают: 4
Скачать торрент
Скачать торрент
Описание торрента

СообщениеДобавлено: 28 июл 2013 

#77


Название: Астерикс в Британии
Оригинальное название: Asterix in Britain
Год выпуска: 1986 г.
Страна: Франция
Жанр: комедия, приключения, мультфильм
Продолжительность: 01:18:58
Перевод: Профессиональный (многоголосый закадровый) - R5 Videogram
Cубтитры: нет

Режиссер: Пино Ван Ламсвеерде / Pino Van Lamsweerde

Описание: Юлий Цезарь не на шутку разозлился на британцев, которые не только не сдавались римским войскам, но и неоднократно помогали в битвах свободолюбивым галлам. Выход один — война. Тем более что британцы воюют лишь пять дней в неделю, да и то с перерывом для чаепития. Хитрый Цезарь вновь забыл, что где-то поблизости, — всего лишь через пролив, — проживает доблестный Астерикс с друзьями. Только им известен секрет таинственного зелья... А то, что подходит для галлов, подойдет и для британцев!

Качество видео: BDRip
Формат видео: AVI

Видео: 640x384 (1.67:1), 23.976 fps, XviD build 50 ~1186 kbps avg, 0.20 bit/pixel
Аудио: 48 kHz, MPEG Layer 3, 2 ch, ~128.00 kbps avg
Релиз от:
D:Мои рипыAsterix v Bretons.1986.MVO.BDRip.by dexter lex.avi
General
Complete name : D:Мои рипыAsterix v Bretons.1986.MVO.BDRip.by dexter lex.avi
Format : AVI
Format/Info : Audio Video Interleave
File size : 744 MiB
Duration : 1h 18mn
Overall bit rate : 1 323 Kbps
Writing application : VirtualDubMod 1.5.10.3 | www.virtualdub-fr.org || (build 2550/release)
Writing library : VirtualDubMod build 2550/release
Video #0
ID : 0
Format : MPEG-4 Visual
Format profile : Advanced Simple@L5
Format settings, BVOP : 1
Format settings, QPel : No
Format settings, GMC : No warppoints
Format settings, Matrix : Custom
Codec ID : XVID
Codec ID/Hint : XviD
Duration : 1h 18mn
Bit rate : 1 186 Kbps
Width : 640 pixels
Height : 384 pixels
Display aspect ratio : 1.67:1
Frame rate : 23.976 fps
Color space : YUV
Chroma subsampling : 4:2:0
Bit depth : 8 bits
Scan type : Progressive
Compression mode : Lossy
Bits/(Pixel*Frame) : 0.201
Stream size : 667 MiB (90%)
Writing library : XviD 1.2.1 (UTC 2008-12-04)
Audio #1
ID : 1
Format : MPEG Audio
Format version : Version 1
Format profile : Layer 3
Codec ID : 55
Codec ID/Hint : MP3
Duration : 1h 18mn
Bit rate mode : Constant
Bit rate : 128 Kbps
Channel(s) : 2 channels
Sampling rate : 48.0 KHz
Compression mode : Lossy
Stream size : 72.0 MiB (10%)
Alignment : Aligned on interleaves
Interleave, duration : 42 ms (1.00 video frame)
Interleave, preload duration : 504 ms
Writing library : LAME3.99r
Encoding settings : -m s -V 4 -q 2 -lowpass 17 -b 128





   Похожие торренты   Торрент   Размер 
В этой теме нет новых непрочитанных сообщений. Астерикс в Британии / Asterix in Britain / Astérix chez les Bretons (1986) BDRip 720p

2 | 2

6.87 ГБ

В этой теме нет новых непрочитанных сообщений. Астерикс в Британии / Asterix in Britain / Asterix chez les Bretons (1986) BDRip от HQCLUB

38 | 15

1.45 ГБ

В этой теме нет новых непрочитанных сообщений. Астерикс в Британии / Asterix in Britain (1986) BDRip-AVC от New-Team | D

43 | 11

744.63 МБ

В этой теме нет новых непрочитанных сообщений. Астерикс в Британии / Asterix in Britain (1987) DVDRip

5 | 2

697.91 МБ

В этой теме нет новых непрочитанных сообщений. Астерикс и Обеликс в Британии / Astérix et Obélix: Au service de Sa Majesté (2012) BDRip-AVC от potroks | D

240 | 14

2.91 ГБ

В этой теме нет новых непрочитанных сообщений. Астерикс и Обеликс в Британии / Asterix et Obelix: God Save Britannia (2012) BDRip-AVC | iPad

5 | 2

2.87 ГБ

В этой теме нет новых непрочитанных сообщений. Астерикс и Обеликс в Британии / Astérix et Obélix: Au service de Sa Majesté (2012) BDRip 1080p | Лицензия

6 | 3

7.99 ГБ




Вы не можете начинать темы
Вы не можете отвечать на сообщения
Вы не можете редактировать свои сообщения
Вы не можете удалять свои сообщения
Вы не можете добавлять вложения

Перейти:  
Для Мосгорсуда, Роскомнадзора и рекламодателей: mosgorsud-torrent[собачка]yandex.ru
 Вход
ppkBB3cker v.2 © 2008-2014 @ PPK
[ Time : 0.054s | 15 Queries | GZIP : Off ]

Торрент трекер RUTOR.IN, Не можете зайти на rutor.org? Какой новый адрес рутор? Какое зеркало рутор? Не работает rutor.org и зеркала? Тогда наш торрент специально для вас. Rutor.in неофициальное зеркало rutor. В случае если у Вас заблокирован rutor или вдруг Вы не можете на него зайти, то Вы без труда сможете скачать бесплатно и без рекламы последние новинки кино, игр, сериалов и прочего у нас, на Rutor.in. Не нужно использовать прокси, чтобы зайти на рутор, достаточно воспользоваться нашим ресурсом. Все новые фильмы, игры, сериалы, книги и музыка за 2013 и 2014 годы через торрент бесплатно. Скачивайте фильмы в хорошем качестве, игры для пк, xbox, playstation без регистрации. У нас вы найдете новые Зарубежные сериалы и Русские сериалы 2013, 2014, 2015 годов. Оставайтесь с нами, качайте любимые фильмы, игры, сериалы, книги и музыку.
cron