img image001 image001 image001 image001 image001 image001 image001 image001 image001 image001 image001 image001 image001 image001 image001

Planets Sun Sun Sun
Статистика раздачи
Автор: Снежана | Размер: 7.49 ГБ | Добавлен: 27 июл 2013
Раздают: 8    Качают: 2
Скачать торрент
Скачать торрент
Описание торрента

СообщениеДобавлено: 27 июл 2013 

#77


Гладиаторы Рима в 3Д / Gladiatori di Roma 3D


#77

Страна: Италия
Студия: Rainbow S.r.l
Жанр: мультфильм, комедия, приключения
Год выпуска: 2012
Продолжительность: 01:34:04

Перевод: русский дубляж [Лицензия, R5]
Оригинальная аудиодорожка: итальянская
Русские субтитры: нет
Режиссер: Иджинио Страффи / Iginio Straffi
Роли озвучивали: Лука Арджентеро, Лаура Кьятти, Джулианна Хаф, Белен Родригес
Роли дублировали: Дмитрий Нагиев и др.


Страшное извержение вулкана разрушает город Помпеи, и маленький Тим остается сиротой. Его спаситель, генерал Кирон, отправляет Тима в школу гладиаторов, но юный лентяй упорно не желает становиться бойцом. Повзрослев, Тим влюбляется в красавицу Лючиллу. Но чтобы покорить её сердце, нужно стать настоящим героем. Прекрасная Диана, богиня охоты и мастер по гладиаторским боям, берется за тренировки Тима перед первым боем. Но получится ли у Тима победить самого себя и стать настоящим мужчиной?

Качество: BDRip 1080p
Контейнер: MKV
Формат 3D: Half OverUnder / Вертикальная анаморфная стереопара
Порядок ракурсов: левый ракурс первый
Поддержка автоматического запуска 3D на вашем TV (frame paking): да
Видео кодек: x264
Аудио кодек: AC3
Видео: AVC / High@L4.1 / 2 pass / 23,976 fps / 1920x1080p / 10,3 Mbps / 0.207
Аудио 1: AC3 / 5.1 ch / 448 kbps / Русский дубляж, R5
Аудио 2: AC3 / 5.1 ch / 640 kbps / Итальянский original, BD ITA
Субтитры: нет
Дополнительно: Сохранены оригинальные чаптеры как на Blu-ray
Рип от: Killbrain


Раздача от:








Проверено на оборудовании:
3D медиаплеер: iconBIT XDS73D
3D телевизор: 3D LED-Телевизор 40" Samsung UE40 ES6850M





x264 [info]: frame I:1707 Avg QP:13.59 size:356553
x264 [info]: frame P:39556 Avg QP:17.50 size: 96440
x264 [info]: frame B:94074 Avg QP:19.17 size: 30256

Общее
Уникальный идентификатор : 176469444382110785382857503458596774590 (0x84C2C75A39D6D90A8DA62244012C62BE)
Полное имя : F:Скачка торрентGladiatori.di.Roma.3D.2012.BDRip1080p.halfOU(Killbrain).mkv
Формат : Matroska
Версия формата : Version 4 / Version 2
Размер файла : 7,49 Гбайт
Продолжительность : 1 ч. 34 м.
Общий поток : 11,4 Мбит/сек
Название фильма : Gladiatori di Roma 3D (2012) by Killbrain
Дата кодирования : UTC 2013-02-27 15:22:26
Программа кодирования : mkvmerge v6.0.0 ('Coming Up For Air') built on Jan 20 2013 09:52:00
Библиотека кодирования : libebml v1.3.0 + libmatroska v1.4.0

Видео
Идентификатор : 1
Формат : AVC
Формат/Информация : Advanced Video Codec
Профиль формата : High@L4.1
Параметр CABAC формата : Да
Параметр ReFrames формата : 4 кадра
Идентификатор кодека : V_MPEG4/ISO/AVC
Продолжительность : 1 ч. 34 м.
Битрейт : 10,3 Мбит/сек
Ширина : 1920 пикселей
Высота : 1080 пикселей
Соотношение сторон : 16:9
Режим частоты кадров : Постоянный
Частота кадров : 23,976 кадра/сек
Цветовое пространство : YUV
Субдискретизация насыщенности : 4:2:0
Битовая глубина : 8 бит
Тип развёртки : Прогрессивная
Бит/(Пиксели*Кадры) : 0.207
Размер потока : 6,62 Гбайт (88%)
Заголовок : Gladiatori di Roma 3D (2012)
Библиотека кодирования : x264 core 128 r2216 198a7ea
Настройки программы : cabac=1 / ref=4 / deblock=1:-2:-2 / analyse=0x3:0x113 / me=umh / subme=9 / psy=1 / psy_rd=1.00:0.40 / mixed_ref=1 / me_range=16 / chroma_me=1 / trellis=2 / 8x8dct=1 / cqm=0 / deadzone=21,11 / fast_pskip=1 / chroma_qp_offset=-4 / threads=3 / lookahead_threads=1 / sliced_threads=0 / nr=0 / decimate=0 / interlaced=0 / bluray_compat=0 / constrained_intra=0 / bframes=6 / b_pyramid=2 / b_adapt=2 / b_bias=0 / direct=3 / weightb=1 / open_gop=0 / weightp=2 / keyint=240 / keyint_min=23 / scenecut=40 / intra_refresh=0 / rc_lookahead=60 / rc=2pass / mbtree=0 / bitrate=10300 / ratetol=1.0 / qcomp=0.65 / qpmin=0 / qpmax=69 / qpstep=4 / cplxblur=20.0 / qblur=0.5 / vbv_maxrate=40000 / vbv_bufsize=40000 / nal_hrd=none / frame-packing=4 / ip_ratio=1.40 / pb_ratio=1.30 / aq=1:0.70
Язык : Italian
Default : Да
Forced : Нет

Аудио #1
Идентификатор : 2
Формат : AC-3
Формат/Информация : Audio Coding 3
Расширение режима : CM (complete main)
Параметр Endianness формата : Big
Идентификатор кодека : A_AC3
Продолжительность : 1 ч. 34 м.
Вид битрейта : Постоянный
Битрейт : 448 Кбит/сек
Каналы : 6 каналов
Расположение каналов : Front: L C R, Side: L R, LFE
Частота : 48,0 КГц
Битовая глубина : 16 бит
Метод сжатия : С потерями
Размер потока : 301 Мбайт (4%)
Заголовок : AC3 / 5.1 ch / 448 kbps / Русский дубляж, R5
Язык : Russian
Default : Да
Forced : Нет

Аудио #2
Идентификатор : 3
Формат : AC-3
Формат/Информация : Audio Coding 3
Расширение режима : CM (complete main)
Параметр Endianness формата : Big
Идентификатор кодека : A_AC3
Продолжительность : 1 ч. 34 м.
Вид битрейта : Постоянный
Битрейт : 640 Кбит/сек
Каналы : 6 каналов
Расположение каналов : Front: L C R, Side: L R, LFE
Частота : 48,0 КГц
Битовая глубина : 16 бит
Метод сжатия : С потерями
Размер потока : 431 Мбайт (6%)
Заголовок : AC3 / 5.1 ch / 640 kbps / Итальянский origina, BD
Язык : Italian
Default : Нет
Forced : Нет

Меню
00:00:00.000 : :Chapter 01
00:05:49.807 : :Chapter 02
00:13:47.034 : :Chapter 03
00:19:00.138 : :Chapter 04
00:25:01.416 : :Chapter 05
00:31:26.426 : :Chapter 06
00:35:59.031 : :Chapter 07
00:42:21.205 : :Chapter 08
00:47:07.866 : :Chapter 09
00:52:27.227 : :Chapter 10
00:56:24.089 : :Chapter 11
01:03:29.805 : :Chapter 12
01:08:41.283 : :Chapter 13
01:13:22.648 : :Chapter 14
01:17:42.282 : :Chapter 15
01:23:48.356 : :Chapter 16






   Похожие торренты   Торрент   Размер 
В этой теме нет новых непрочитанных сообщений. Гладиаторы Рима / Gladiatori di Roma (2012) BDRip 1080p от Youtracker

1 | 6

6.95 ГБ

В этой теме нет новых непрочитанных сообщений. Гладиаторы Рима / Gladiatori di Roma (2012) BDRip 1080p | 3D-Video

51 | 4

7.42 ГБ

В этой теме нет новых непрочитанных сообщений. Гладиаторы Рима / Gladiatori di Roma (2012) DVD9 R5 от Youtracker | D

3 | 1

6.24 ГБ

В этой теме нет новых непрочитанных сообщений. Гладиаторы Рима / Gladiatori di Roma (2012) BDRip 1080p

17 | 7

4.37 ГБ

В этой теме нет новых непрочитанных сообщений. Гладиаторы Рима / Gladiatori di Roma (2012) BDRip | Лицензия

1150 | 71

1.46 ГБ

В этой теме нет новых непрочитанных сообщений. Гладиаторы Рима / Gladiatori di Roma (2012) BDRip от HQCLUB | Лицензия

50 | 8

1.45 ГБ

В этой теме нет новых непрочитанных сообщений. Гладиаторы Рима / Gladiatori di Roma (2012) DVDRip | Лицензия

40 | 6

698.73 МБ




Вы не можете начинать темы
Вы не можете отвечать на сообщения
Вы не можете редактировать свои сообщения
Вы не можете удалять свои сообщения
Вы не можете добавлять вложения

Перейти:  
Для Мосгорсуда, Роскомнадзора и рекламодателей: mosgorsud-torrent[собачка]yandex.ru
 Вход
ppkBB3cker v.2 © 2008-2014 @ PPK
[ Time : 0.028s | 16 Queries | GZIP : Off ]

Торрент трекер RUTOR.IN, Не можете зайти на rutor.org? Какой новый адрес рутор? Какое зеркало рутор? Не работает rutor.org и зеркала? Тогда наш торрент специально для вас. Rutor.in неофициальное зеркало rutor. В случае если у Вас заблокирован rutor или вдруг Вы не можете на него зайти, то Вы без труда сможете скачать бесплатно и без рекламы последние новинки кино, игр, сериалов и прочего у нас, на Rutor.in. Не нужно использовать прокси, чтобы зайти на рутор, достаточно воспользоваться нашим ресурсом. Все новые фильмы, игры, сериалы, книги и музыка за 2013 и 2014 годы через торрент бесплатно. Скачивайте фильмы в хорошем качестве, игры для пк, xbox, playstation без регистрации. У нас вы найдете новые Зарубежные сериалы и Русские сериалы 2013, 2014, 2015 годов. Оставайтесь с нами, качайте любимые фильмы, игры, сериалы, книги и музыку.
cron