img image001 image001 image001 image001 image001 image001 image001 image001 image001 image001 image001 image001 image001 image001 image001

Planets Sun Sun Sun
Статистика раздачи
Автор: Снежана | Размер: 4.37 ГБ | Добавлен: 27 июл 2013
Раздают: 17    Качают: 7
Скачать торрент
Скачать торрент
Описание торрента

СообщениеДобавлено: 27 июл 2013 

Гладиаторы Рима / Gladiatori di Roma


Год выпуска: 2012
Страны: Италия | Rainbow S.r.l
Жанры: мультфильм, комедия, приключения
Продолжительность: 01:34:04
Режиссер: Иджинио Страффи
Перевод: Дубляж + Оригинал
В ролях:Лука Арджентеро, Лаура Кьятти, Джулианна Хаф, Белен Родригес

Описание:
Страшное извержение вулкана разрушает город Помпеи, и маленький Тим остается сиротой. Его спаситель, генерал Кирон, отправляет Тима в школу гладиаторов, но юный лентяй упорно не желает становиться бойцом. Повзрослев, Тим влюбляется в красавицу Лючиллу. Но чтобы покорить её сердце, нужно стать настоящим героем. Прекрасная Диана, богиня охоты и мастер по гладиаторским боям, берется за тренировки Тима перед первым боем. Но получится ли у Тима победить самого себя и стать настоящим мужчиной?



Качество: BDRip 1080p (источник: Blu-ray Disc)
Формат: MKV
Видео кодек: H.264 (AVC)
Аудио кодек: AC3
Видео: 1920x816, 5562 Kbps, 23,976 fps
Звук: 48 kHz, AC3, 6c, 448 kbps
Звук: 48 kHz, AC3, 6c, 640 kbps
Субтитры: Нет

Скачать Семпл



Общее
Уникальный идентификатор : 183215808697715333453356531363940365176 (0x89D614CB338681558AB1946110077378)
Формат : Matroska
Версия формата : Version 4 / Version 2
Размер файла : 4,37 Гбайт
Продолжительность : 1 ч. 34 м.
Общий поток : 6650 Кбит/сек
Дата кодирования : UTC 2013-02-28 11:13:08
Программа кодирования : mkvmerge v6.0.0 ('Coming Up For Air') built on Jan 20 2013 09:52:00
Библиотека кодирования : libebml v1.3.0 + libmatroska v1.4.0

Видео
Идентификатор : 1
Формат : AVC
Формат/Информация : Advanced Video Codec
Профиль формата : High@L4.1
Параметр CABAC формата : Да
Параметр ReFrames формата : 5 кадров
Идентификатор кодека : V_MPEG4/ISO/AVC
Продолжительность : 1 ч. 34 м.
Битрейт : 5562 Кбит/сек
Ширина : 1920 пикселей
Высота : 816 пикселей
Соотношение сторон : 2,35:1
Режим частоты кадров : Постоянный
Частота кадров : 23,976 кадра/сек
Цветовое пространство : YUV
Субдискретизация насыщенности : 4:2:0
Битовая глубина : 8 бит
Тип развёртки : Прогрессивная
Бит/(Пиксели*Кадры) : 0.148
Размер потока : 3,57 Гбайт (82%)
Заголовок : Rip by Dimok
Библиотека кодирования : x264 core 129 r2245 bc13772
Настройки программы : cabac=1 / ref=5 / deblock=1:0:0 / analyse=0x3:0x133 / me=umh / subme=11 / psy=1 / psy_rd=1.00:0.10 / mixed_ref=1 / me_range=32 / chroma_me=1 / trellis=2 / 8x8dct=1 / cqm=0 / deadzone=21,11 / fast_pskip=0 / chroma_qp_offset=-1 / threads=12 / lookahead_threads=2 / sliced_threads=0 / slices=1 / nr=0 / decimate=0 / interlaced=0 / bluray_compat=0 / constrained_intra=0 / bframes=3 / b_pyramid=2 / b_adapt=2 / b_bias=0 / direct=3 / weightb=1 / open_gop=0 / weightp=2 / keyint=240 / keyint_min=23 / scenecut=40 / intra_refresh=0 / rc_lookahead=70 / rc=2pass / mbtree=1 / bitrate=5562 / ratetol=1.0 / qcomp=0.62 / qpmin=1 / qpmax=69 / qpstep=4 / cplxblur=20.0 / qblur=0.5 / ip_ratio=1.40 / aq=1:1.00
Язык : English
Default : Да
Forced : Нет

Аудио #1
Идентификатор : 2
Формат : AC-3
Формат/Информация : Audio Coding 3
Расширение режима : CM (complete main)
Параметр Endianness формата : Big
Идентификатор кодека : A_AC3
Продолжительность : 1 ч. 34 м.
Вид битрейта : Постоянный
Битрейт : 448 Кбит/сек
Каналы : 6 каналов
Расположение каналов : Front: L C R, Side: L R, LFE
Частота : 48,0 КГц
Битовая глубина : 16 бит
Метод сжатия : С потерями
Задержка видео : 42 мс.
Размер потока : 301 Мбайт (7%)
Заголовок : Дубляж
Язык : Russian
Default : Да
Forced : Нет

Аудио #2
Идентификатор : 3
Формат : AC-3
Формат/Информация : Audio Coding 3
Расширение режима : CM (complete main)
Параметр Endianness формата : Big
Идентификатор кодека : A_AC3
Продолжительность : 1 ч. 34 м.
Вид битрейта : Постоянный
Битрейт : 640 Кбит/сек
Каналы : 6 каналов
Расположение каналов : Front: L C R, Side: L R, LFE
Частота : 48,0 КГц
Битовая глубина : 16 бит
Метод сжатия : С потерями
Размер потока : 431 Мбайт (10%)
Заголовок : Original
Язык : Italian
Default : Нет
Forced : Нет

Меню
00:00:00.000 : :0:00:00
00:05:49.807 : :0:05:49
00:13:47.034 : :0:13:47
00:19:00.138 : :0:19:00
00:25:01.416 : :0:25:01
00:31:26.426 : :0:31:26
00:35:59.031 : :0:35:59
00:42:21.205 : :0:42:21
00:47:07.866 : :0:47:07
00:52:27.227 : :0:52:27
00:56:24.089 : :0:56:24
01:03:29.806 : :1:03:29
01:08:41.283 : :1:08:41
01:13:22.648 : :1:13:22
01:17:42.282 : :1:17:42
01:23:48.356 : :1:23:48
x264 [info]: frame I:1823 Avg QP:14.77 size:264709
x264 [info]: frame P:48929 Avg QP:19.31 size: 47661
x264 [info]: frame B:84584 Avg QP:23.16 size: 13100



   Похожие торренты   Торрент   Размер 
В этой теме нет новых непрочитанных сообщений. Гладиаторы Рима / Gladiatori di Roma (2012) BDRip 1080p от Youtracker

1 | 6

6.95 ГБ

В этой теме нет новых непрочитанных сообщений. Гладиаторы Рима / Gladiatori di Roma (2012) BDRip 1080p | 3D-Video

51 | 4

7.42 ГБ

В этой теме нет новых непрочитанных сообщений. Гладиаторы Рима / Gladiatori di Roma (2012) BDRip 1080p от Youtracker | 3D-Video

8 | 2

7.49 ГБ

В этой теме нет новых непрочитанных сообщений. Гладиаторы Рима / Gladiatori di Roma (2012) BDRip | Лицензия

1150 | 71

1.46 ГБ

В этой теме нет новых непрочитанных сообщений. Гладиаторы Рима / Gladiatori di Roma (2012) BDRip от HQCLUB | Лицензия

50 | 8

1.45 ГБ

В этой теме нет новых непрочитанных сообщений. Гладиаторы Рима / Gladiatori di Roma (2012) DVD9 R5 от Youtracker | D

3 | 1

6.24 ГБ

В этой теме нет новых непрочитанных сообщений. Гладиаторы Рима / Gladiatori di Roma (2012) DVDRip | Лицензия

40 | 6

698.73 МБ




Вы не можете начинать темы
Вы не можете отвечать на сообщения
Вы не можете редактировать свои сообщения
Вы не можете удалять свои сообщения
Вы не можете добавлять вложения

Перейти:  
Для Мосгорсуда, Роскомнадзора и рекламодателей: mosgorsud-torrent[собачка]yandex.ru
 Вход
ppkBB3cker v.2 © 2008-2014 @ PPK
[ Time : 1.828s | 14 Queries | GZIP : Off ]

Торрент трекер RUTOR.IN, Не можете зайти на rutor.org? Какой новый адрес рутор? Какое зеркало рутор? Не работает rutor.org и зеркала? Тогда наш торрент специально для вас. Rutor.in неофициальное зеркало rutor. В случае если у Вас заблокирован rutor или вдруг Вы не можете на него зайти, то Вы без труда сможете скачать бесплатно и без рекламы последние новинки кино, игр, сериалов и прочего у нас, на Rutor.in. Не нужно использовать прокси, чтобы зайти на рутор, достаточно воспользоваться нашим ресурсом. Все новые фильмы, игры, сериалы, книги и музыка за 2013 и 2014 годы через торрент бесплатно. Скачивайте фильмы в хорошем качестве, игры для пк, xbox, playstation без регистрации. У нас вы найдете новые Зарубежные сериалы и Русские сериалы 2013, 2014, 2015 годов. Оставайтесь с нами, качайте любимые фильмы, игры, сериалы, книги и музыку.