img image001 image001 image001 image001 image001 image001 image001 image001 image001 image001 image001 image001 image001 image001 image001

Planets Sun Sun Sun
Статистика раздачи
Автор: Снежана | Размер: 5.76 ГБ | Добавлен: 27 июл 2013
Раздают: 59    Качают: 3
Скачать торрент
Скачать торрент
Описание торрента

СообщениеДобавлено: 27 июл 2013 

#77

Информация о фильме
Название: Корпорация монстров
Оригинальное название: Monsters, Inc.
Год выхода: 2001
Жанр: Мультфильм, фэнтези, комедия, приключения, семейный
Режиссер: Пит Доктер, Дэвид Силверман, Ли Анкрич
В ролях: Джон Гудмен, Билли Кристал, Мэри Гиббс, Стив Бушеми, Джеймс Коберн, Дженнифер Тилли, Боб Питерсон, Джон Ратценбергер, Фрэнк Оз, Дэниэл Джерсон

О фильме:
Склизский гад в сливном бачке, мохнатый зверь, похожий на чудовище из «Аленького цветочка», гигантские мокрицы под кроватью — все они существуют на самом деле. Все, что им нужно — пугать детей, потому что из детских криков они получают электричество.
Полнометражный мультфильм рассказывает о кризисах в мире монстров, их жизни. Но однажды вся мирная жизнь монстров оказывается под угрозой: в их мир попадает ребенок. А с детьми столько хлопот, что они могут довести даже монстров.



Страна: США
Студия: Pixar Animation Studios, Walt Disney Pictures
Продолжительность: 01:32:16
Перевод: Дублированный + Авторский (одноголосый, закадровый) Андрей Гаврилов + Оригинал

Файл
Кодек: x264
Качество: BDRip 1080p (источник: HDTRACKER / Blu-ray Disc / 1080p)
Видео: 1920х1036 (1.85:1), 7023 Kbps, 23.976 fps, 0.147 bit/pixel
Аудио #1: 48.0 kHz, AC3 Dolby Digital, 3/2 (L,C,R,l,r) + LFE ch, 640 kbps [Дубляж]
Аудио #2: 48.0 kHz, AC3 Dolby Digital, 3/2 (L,C,R,l,r) + LFE ch, 640 kbps [Авторский, А. Гаврилов]
Аудио #3: 48.0 kHz, AC3 Dolby Digital, 3/2 (L,C,R,l,r) + LFE ch, 640 kbps [Английский]
Субтитры: Русские, английские

Семпл




x264 [info]: frame I:1466 Avg QP:15.51 size:287373
x264 [info]: frame P:47110 Avg QP:19.71 size: 56721
x264 [info]: frame B:84151 Avg QP:23.50 size: 20958
General
Unique ID : 218751592518963119488212344920278294146 (0xA4920634B05238288EE484D21D0BDE82)
Complete name : E:Monsters.Inc.2001.x264.BDRip.1080p.mkv
Format : Matroska
Format version : Version 4 / Version 2
File size : 5.76 GiB
Duration : 1h 32mn
Overall bit rate : 8 942 Kbps
Encoded date : UTC 2013-02-28 16:52:35
Writing application : mkvmerge v6.0.0 ('Coming Up For Air') built on Jan 20 2013 09:52:00
Writing library : libebml v1.3.0 + libmatroska v1.4.0

Video
ID : 1
Format : AVC
Format/Info : Advanced Video Codec
Format profile : High@L4.1
Format settings, CABAC : Yes
Format settings, ReFrames : 4 frames
Codec ID : V_MPEG4/ISO/AVC
Duration : 1h 32mn
Bit rate : 7 023 Kbps
Width : 1 920 pixels
Height : 1 036 pixels
Display aspect ratio : 1.85:1
Frame rate mode : Constant
Frame rate : 23.976 fps
Color space : YUV
Chroma subsampling : 4:2:0
Bit depth : 8 bits
Scan type : Progressive
Bits/(Pixel*Frame) : 0.147
Stream size : 4.41 GiB (77%)
Writing library : x264 core 129 r2245 bc13772
Encoding settings : cabac=1 / ref=4 / deblock=1:-1:-1 / analyse=0x3:0x133 / me=tesa / subme=11 / psy=1 / psy_rd=1.00:0.00 / mixed_ref=1 / me_range=48 / chroma_me=1 / trellis=2 / 8x8dct=1 / cqm=0 / deadzone=21,11 / fast_pskip=0 / chroma_qp_offset=-2 / threads=12 / lookahead_threads=2 / sliced_threads=0 / nr=0 / decimate=0 / interlaced=0 / bluray_compat=0 / constrained_intra=0 / bframes=3 / b_pyramid=2 / b_adapt=2 / b_bias=0 / direct=3 / weightb=1 / open_gop=0 / weightp=2 / keyint=240 / keyint_min=23 / scenecut=40 / intra_refresh=0 / rc_lookahead=60 / rc=2pass / mbtree=1 / bitrate=7023 / ratetol=1.0 / qcomp=0.60 / qpmin=0 / qpmax=69 / qpstep=4 / cplxblur=20.0 / qblur=0.5 / ip_ratio=1.40 / aq=1:1.00
Language : English
Default : Yes
Forced : No

Audio #1
ID : 2
Format : AC-3
Format/Info : Audio Coding 3
Mode extension : CM (complete main)
Format settings, Endianness : Big
Codec ID : A_AC3
Duration : 1h 32mn
Bit rate mode : Constant
Bit rate : 640 Kbps
Channel(s) : 6 channels
Channel positions : Front: L C R, Side: L R, LFE
Sampling rate : 48.0 KHz
Bit depth : 16 bits
Compression mode : Lossy
Stream size : 422 MiB (7%)
Title : AC3 5.1ch 640 kbps - Дубляж
Language : Russian
Default : Yes
Forced : No

Audio #2
ID : 3
Format : AC-3
Format/Info : Audio Coding 3
Mode extension : CM (complete main)
Format settings, Endianness : Big
Codec ID : A_AC3
Duration : 1h 32mn
Bit rate mode : Constant
Bit rate : 640 Kbps
Channel(s) : 6 channels
Channel positions : Front: L C R, Side: L R, LFE
Sampling rate : 48.0 KHz
Bit depth : 16 bits
Compression mode : Lossy
Stream size : 422 MiB (7%)
Title : AC3 5.1ch 640 kbps - Авторский, А. Гаврилов
Language : Russian
Default : No
Forced : No

Audio #3
ID : 4
Format : AC-3
Format/Info : Audio Coding 3
Mode extension : CM (complete main)
Format settings, Endianness : Big
Codec ID : A_AC3
Duration : 1h 32mn
Bit rate mode : Constant
Bit rate : 640 Kbps
Channel(s) : 6 channels
Channel positions : Front: L C R, Side: L R, LFE
Sampling rate : 48.0 KHz
Bit depth : 16 bits
Compression mode : Lossy
Stream size : 422 MiB (7%)
Title : AC3 5.1ch 640 kbps - Английский
Language : English
Default : No
Forced : No

Text #1
ID : 5
Format : UTF-8
Codec ID : S_TEXT/UTF8
Codec ID/Info : UTF-8 Plain Text
Title : Русские
Language : Russian
Default : No
Forced : No

Text #2
ID : 6
Format : UTF-8
Codec ID : S_TEXT/UTF8
Codec ID/Info : UTF-8 Plain Text
Title : Английские
Language : English
Default : No
Forced : No

Menu
00:00:00.000 : en:Main Titles
00:01:33.092 : en:Monster in the Closet
00:03:07.604 : en:Mr. Waternoose
00:04:51.124 : en:Morning Workout
00:07:16.936 : en:Monstropolis
00:09:11.509 : en:Monsters, Inc.
00:10:43.601 : en:Randall
00:11:53.796 : en:The Scare Floor
00:17:25.794 : en:"23-19!"
00:20:06.079 : en:End of the Day
00:22:03.780 : en:Boo!
00:25:48.421 : en:Harryhausen's
00:28:34.963 : en:Back at the Apartment
00:31:06.489 : en:Bedtime
00:34:49.962 : en:Sneaking Boo to Work
00:36:55.630 : en:Potty Break
00:38:50.286 : en:Randall's Plot
00:40:27.883 : en:The Wrong Door
00:43:34.278 : en:Mike on the Run
00:45:29.726 : en:The Trash Compactor
00:48:07.426 : en:Mike Kidnapped
00:50:37.159 : en:The Scream Extractor
00:54:41.277 : en:Sulley Scares Boo
00:57:29.445 : en:Banished
01:03:42.026 : en:Sulley Rescues Boo
01:06:25.022 : en:"Schmoopsie Poo!"
01:07:26.375 : en:The Door Vault
01:13:52.135 : en:Tricking Waternoose
01:17:49.581 : en:Goodbye
01:21:24.921 : en:The Laugh Floor
01:24:07.959 : en:Kitty!
01:25:06.225 : en:End Credits



   Похожие торренты   Торрент   Размер 
В этой теме нет новых непрочитанных сообщений. Корпорация монстров / Monsters, Inc. / Университет монстров / Monsters University (2001-2013) BDRip 720p от Leonardo and Scarabey | iPad

705 | 203

3.31 ГБ

В этой теме нет новых непрочитанных сообщений. Корпорация монстров / Monsters, Inc. (2001) BDRip 1080p

197 | 17

4.37 ГБ

В этой теме нет новых непрочитанных сообщений. Корпорация монстров / Monsters, Inc. (2001) BDRip 1080p

41 | 6

7.34 ГБ

В этой теме нет новых непрочитанных сообщений. Корпорация Монстров / Monsters, Inc. (2001) BDRip 1080p от MediaClub

104 | 8

10.81 ГБ

В этой теме нет новых непрочитанных сообщений. Корпорация монстров / Monsters, Inc. (2001) BDRip 1080p от Neofilm

108 | 14

4.28 ГБ

В этой теме нет новых непрочитанных сообщений. Корпорация Монстров / Monsters, Inc. (2001) BDRip 1080p от NoLimits-Team

4 | 5

7.94 ГБ

В этой теме нет новых непрочитанных сообщений. Корпорация монстров / Monsters, Inc. 3D (2001) BDRip 1080p от Youtracker | 3D-Video

46 | 6

8.22 ГБ




Вы не можете начинать темы
Вы не можете отвечать на сообщения
Вы не можете редактировать свои сообщения
Вы не можете удалять свои сообщения
Вы не можете добавлять вложения

Перейти:  
Для Мосгорсуда, Роскомнадзора и рекламодателей: mosgorsud-torrent[собачка]yandex.ru
 Вход
ppkBB3cker v.2 © 2008-2014 @ PPK
[ Time : 0.556s | 17 Queries | GZIP : Off ]

Торрент трекер RUTOR.IN, Не можете зайти на rutor.org? Какой новый адрес рутор? Какое зеркало рутор? Не работает rutor.org и зеркала? Тогда наш торрент специально для вас. Rutor.in неофициальное зеркало rutor. В случае если у Вас заблокирован rutor или вдруг Вы не можете на него зайти, то Вы без труда сможете скачать бесплатно и без рекламы последние новинки кино, игр, сериалов и прочего у нас, на Rutor.in. Не нужно использовать прокси, чтобы зайти на рутор, достаточно воспользоваться нашим ресурсом. Все новые фильмы, игры, сериалы, книги и музыка за 2013 и 2014 годы через торрент бесплатно. Скачивайте фильмы в хорошем качестве, игры для пк, xbox, playstation без регистрации. У нас вы найдете новые Зарубежные сериалы и Русские сериалы 2013, 2014, 2015 годов. Оставайтесь с нами, качайте любимые фильмы, игры, сериалы, книги и музыку.