img image001 image001 image001 image001 image001 image001 image001 image001 image001 image001 image001 image001 image001 image001 image001

Planets Sun Sun Sun
Статистика раздачи
Автор: Снежана | Размер: 8.75 ГБ | Добавлен: 27 июл 2013
Раздают: 561    Качают: 219
Скачать торрент
Скачать торрент
Описание торрента

СообщениеДобавлено: 27 июл 2013 

#77
Страна: Россия
Год выпуска: 2011-2013

Жанр: мультфильм, детский
Продолжительность: 90 серий ~ 5 минут

Оригинальная аудиодорожка: Русский
Субтитры: нет

Режиссер: Екатерина Салабай, Галина Воропай, Елена Галдобина...

Описание: Мама, папа и… пятеро щенят. У Барбоскиных все, как у людей. Папа свободное время проводит за компьютером, дочери увлекаются модой и слушают Жанну Киску, а сыновья играют в футбол и мечтают о Нобелевской премии.....





Исходник: 6хDVD5 R5
Тип релиза: DVDRip
Контейнер: AVI

Видео: 720х544, 688x528 (4:3), 25 fps, XviD MPEG-4 ~ 2315 kbps avg, 0.255 bit/pixel
Аудио: 48 kHz, АС3, 2 ch, 192.00 kbps
Раздача от:
При каждом добавлении создаётся новый торрент. Чтобы начать докачку новой серии, пользователям необходимо сделать следующее:
1) остановить скачивание,
2) удалить старый торрент у себя из клиента (старые серии удалять не надо),
3) скачать новый торрент и запустить его у себя в клиенте вместо старого, при этом указать клиенту путь в старую папку куда и должно происходить скачивание новых серий.

Ваш клиент при этом должен произвести хеширование (проверку) старой папки (если не производит сам - помогите ему сделать это), и будет докачивать только те серии которых у вас ещё нет. Старые серии при этом не удаляются, а продолжают раздаваться!
Eсли вы уже удалили старые серии, то предотвратить повторную закачку старых серий можно, отжав галочку в соответствующих местах при запуске нового торрента.

Для 688х528
Общее
Полное имя : Barboskiny.1�1.avi
Формат : AVI
Формат/Информация : Audio Video Interleave
Размер файла : 101 Мбайт
Продолжительность : 5 м. 36 с.
Общий поток : 2517 Кбит/сек
Программа кодирования : VirtualDubMod 1.5.10.3 (build 2550/release)
Библиотека кодирования : VirtualDubMod build 2550/release

Видео
Идентификатор : 0
Формат : MPEG-4 Visual
Профиль формата : Advanced Simple@L5
Параметр BVOP формата : 1
Параметр QPel формата : Нет
Параметр GMC формата : Без точки перехода
Параметр матрицы формата : Выборочная
Идентификатор кодека : XVID
Идентификатор кодека/Подсказка : XviD
Продолжительность : 5 м. 36 с.
Битрейт : 2315 Кбит/сек
Ширина : 688 пикселей
Высота : 528 пикселей
Соотношение сторон : 4:3
Частота кадров : 25,000 кадров/сек
Цветовое пространство : YUV
Субдискретизация насыщенности : 4:2:0
Битовая глубина : 8 бит
Тип развёртки : Прогрессивная
Метод сжатия : С потерями
Бит/(Пиксели*Кадры) : 0.255
Размер потока : 92,9 Мбайт (92%)
Библиотека кодирования : XviD 1.2.1 (UTC 2008-12-04)

Аудио
Идентификатор : 1
Формат : AC-3
Формат/Информация : Audio Coding 3
Расширение режима : CM (complete main)
Идентификатор кодека : 2000
Продолжительность : 5 м. 36 с.
Вид битрейта : Постоянный
Битрейт : 192 Кбит/сек
Каналы : 2 канала
Расположение каналов : Front: L R
Частота : 48,0 КГц
Битовая глубина : 16 бит
Метод сжатия : С потерями
Размер потока : 7,71 Мбайт (8%)
Выравнивание : Разделение по промежуткам
Продолжительность промежутка : 40 мс. (1,00 видеокадр)
Время предзагрузки промежутка : 500 мс.
MediaInfo для 720х544
Общее
Полное имя : Barboskiny.2011Barboskiny.2011.O.DVDRipBarboskiny.4�1.avi
Формат : AVI
Формат/Информация : Audio Video Interleave
Размер файла : 97,2 Мбайт
Продолжительность : 5 м. 28 с.
Общий поток : 2486 Кбит/сек
Программа кодирования : VirtualDubModRus 1.5.10.2 (build 2542/release)
Библиотека кодирования : VirtualDubMod build 2542/release

Видео
Идентификатор : 0
Формат : MPEG-4 Visual
Профиль формата : Advanced Simple@L5
Параметр BVOP формата : 1
Параметр QPel формата : Нет
Параметр GMC формата : Без точки перехода
Параметр матрицы формата : Выборочная
Идентификатор кодека : XVID
Идентификатор кодека/Подсказка : XviD
Продолжительность : 5 м. 28 с.
Битрейт : 2285 Кбит/сек
Ширина : 720 пикселей
Высота : 544 пикселя
Соотношение сторон : 4:3
Частота кадров : 25,000 кадров/сек
Цветовое пространство : YUV
Субдискретизация насыщенности : 4:2:0
Битовая глубина : 8 бит
Тип развёртки : Прогрессивная
Метод сжатия : С потерями
Бит/(Пиксели*Кадры) : 0.233
Размер потока : 89,3 Мбайт (92%)
Библиотека кодирования : XviD 65

Аудио
Идентификатор : 1
Формат : AC-3
Формат/Информация : Audio Coding 3
Расширение режима : CM (complete main)
Идентификатор кодека : 2000
Продолжительность : 5 м. 27 с.
Вид битрейта : Постоянный
Битрейт : 192 Кбит/сек
Каналы : 2 канала
Расположение каналов : Front: L R
Частота : 48,0 КГц
Битовая глубина : 16 бит
Метод сжатия : С потерями
Размер потока : 7,51 Мбайт (8%)
Выравнивание : Разделение по промежуткам
Продолжительность промежутка : 40 мс. (1,00 видеокадр)
Время предзагрузки промежутка : 500 мс

Выпуск 1
01. Пчёлка
02. Опять двойка
03. Межгалактическое сообщество
04. Матч
05. Тест на прочность
06. Перевоспитатели
07. Развитие таланта
08. Спокойной ночи
09. Нобелевская премия
10. Миротворец
11. Первое место
12. Незаменимый Дружок
13. Гончий пес
14. Кто красивее
15. Во всём виноват зайка

Выпуск 2
01. Шнурок
02. Право голоса
03. Лучший подарок
04. Ку-ка-ре-ку
05. Пульт
06. Игры разума
07. Держи себя в руках
08. Побочный эффект
09. Самый лучший
10. Конфетка Правды
11. Колыбельная для дружка
12. Рыжая
13. Шкатулка с секретом
14. Совсем как Жанна Киска
15. Ночь независимости

Выпуск 3:
01. Триумф силы воли
02. Заместитель джина
03. Вечные ценности
04. Сладкий закон
05. Шито-крыто
06. Суперпапа
07. Атака клонов
08. Фото на память
09. Звезда
10. Настоящий парень
11. Все за карточку
12. Квартирный вопрос
13. Театр
14. Улыбка фортуны
15. По-взрослому

Выпуск 4:
01. Принц
02. Пропеллер
03. Сама невинность
04. Опыт общения
05. Безотказный
06. Розыгрыш
07. Ни капельки не страшно
08. Мнение окружающих
09. Срочный ремонт
10. Вознаграждение
11. Двойной Дружок
12. Военная тайна
13. Зеленый гоблин
14. Сальмаганди
15. Как стать Львом Яшей

Выпуск 5:
01. Контакт
02. Ремонт
03. Черная суббота
04. Тайное общество волшебников
05. Потомки скажут спасибо
06. Игровая приставка
07. На благо науки
08. Дача
09. Ученик чародея
10. По закону
11. Чемпион
12. Крокодильи слёзы
13. Второй шанс
14. Поединок
15. Верное средство

Выпуск 6:
01. Рекорд пекинеса
02. Игромания
03. Дедушка хочет на море
04. Туфли
05. Фейерверк
06. Большой
07. Скрепколет
08. Практическая магия
09. Прогулка
10. Важное событие
11. Домовой
12. Укрощение строптивой
13. Ночной сеанс
14. Дворовая история
15. Герой в блестящих доспехах





   Похожие торренты   Торрент   Размер 
В этой теме нет новых непрочитанных сообщений. Барбоскины [S01-06] (2011-2013) DVDRip-AVC от Youtracker

1047 | 181

8.75 ГБ

В этой теме нет новых непрочитанных сообщений. Барбоскины [S01-06] (2011-2013) 6xDVD5 от Youtracker | лицензия

9 | 22

23.7 ГБ

В этой теме нет новых непрочитанных сообщений. Барбоскины [S01-08] (2011-2014) DVDRip от New-Team

3915 | 1169

11.48 ГБ

В этой теме нет новых непрочитанных сообщений. Барбоскины [S01-08] (2011-2014) DVDRip-AVC от New-Team

6860 | 1587

11.49 ГБ

В этой теме нет новых непрочитанных сообщений. Барбоскины: Первое место [01x01-15] (2011) DVDRip

1267 | 75

744.75 МБ

В этой теме нет новых непрочитанных сообщений. Барбоскины: Лучший подарок [02x01-15] (2011) DVDRip

957 | 35

745.27 МБ

В этой теме нет новых непрочитанных сообщений. Барбоскины [01-09x001-159 из ?] (2011-2016) WEBRip от -merci-

411 | 82

9.51 ГБ




Вы не можете начинать темы
Вы не можете отвечать на сообщения
Вы не можете редактировать свои сообщения
Вы не можете удалять свои сообщения
Вы не можете добавлять вложения

Перейти:  
Для Мосгорсуда, Роскомнадзора и рекламодателей: mosgorsud-torrent[собачка]yandex.ru
 Вход
ppkBB3cker v.2 © 2008-2014 @ PPK
[ Time : 0.026s | 16 Queries | GZIP : Off ]

Торрент трекер RUTOR.IN, Не можете зайти на rutor.org? Какой новый адрес рутор? Какое зеркало рутор? Не работает rutor.org и зеркала? Тогда наш торрент специально для вас. Rutor.in неофициальное зеркало rutor. В случае если у Вас заблокирован rutor или вдруг Вы не можете на него зайти, то Вы без труда сможете скачать бесплатно и без рекламы последние новинки кино, игр, сериалов и прочего у нас, на Rutor.in. Не нужно использовать прокси, чтобы зайти на рутор, достаточно воспользоваться нашим ресурсом. Все новые фильмы, игры, сериалы, книги и музыка за 2013 и 2014 годы через торрент бесплатно. Скачивайте фильмы в хорошем качестве, игры для пк, xbox, playstation без регистрации. У нас вы найдете новые Зарубежные сериалы и Русские сериалы 2013, 2014, 2015 годов. Оставайтесь с нами, качайте любимые фильмы, игры, сериалы, книги и музыку.