img image001 image001 image001 image001 image001 image001 image001 image001 image001 image001 image001 image001 image001 image001 image001

Planets Sun Sun Sun
Статистика раздачи
Автор: Снежана | Размер: 2.82 ГБ | Добавлен: 27 июл 2013
Раздают: 18    Качают: 6
Скачать торрент
Скачать торрент
Описание торрента

СообщениеДобавлено: 27 июл 2013 

Ральф / Wreck-It Ralph (2012)
BDRip 720p от DHT-Movies

Название: Ральф
Оригинальное название: Wreck-It Ralph
Год выхода: 2012
Жанр: мультфильм, комедия, приключения, семейный
Режиссер: Рич Мур



В ролях:

Эди МакКлёрг, Минди Калинг, Деннис Хейсбёрт, Рэйчел Харрис, Джеми Элман, Адам Каролла, Сара Силверман, Джек МакБрайер, Джон Си Райли, Джейн Линч

Описание:

Ральф — второстепенный персонаж восьмибитной компьютерной игры, и ему надоело находиться в тени главного героя, мастера на все руки Феликса, который всегда появляется, чтобы «исправить» ситуацию! После тридцати лет добросовестной работы в роли злодея, в течение которых все похвалы выпадали на долю Феликса, Ральф больше не хочет быть плохим.

Он решает отправиться в путешествие по аркадным играм разных жанров, чтобы доказать всем, что и он тоже может быть героем. На своем пути Ральф встречает героев разных игр — хладнокровную сержанта Калхун из игры Hero’s Duty, оберегающую планету от нашествия инопланетных захватчиков, и сладкую на вид, но острую на язычок Сластену фон Дю, чье существование в гоночном симуляторе Sugar Rush внезапно оказывается под угрозой. Наконец-то Ральфу выпадает шанс показать, что он умеет не только разрушать!


Страна: США
Продолжительность: 01:41:13
Перевод: Дубляж (Профессиональный Лицензия BD CEE) + Оригинал (Английский)
Субтитры: Русские/Английские UTF-8 (full)

Релиз группа: | by AVT83


Качество: BDRip 720p | Wreck It Ralph 2012 1080p 2D BluRay AVC DTS HD MA 7 1 - PublicHD
Формат: MKV
Видео кодек: H.264
Видео: 1280x536/2.40:1/23.976 fps/2 711 Kbps/0.165 Bits/(Pixel*Frame)
Аудио (Русский): 48 kHz, AC3 Dolby Digital, 3/2 (L,C,R,l,r) + LFE ch, ~ 640 kbps avg
Аудио (Английский): 48 kHz, AC3 Dolby Digital, 3/2 (L,C,R,l,r) + LFE ch, ~ 640 kbps avg



avs [info]: 1280x536p 1:1 @ 2500000/104271 fps (cfr)
x264 [info]: using SAR=1/1
x264 [info]: using cpu capabilities: MMX2 SSE2Fast SSSE3 FastShuffle SSE4.2
x264 [info]: profile High, level 4.1
x264 [info]: frame I:1377 Avg QP:15.00 size:119545
x264 [info]: frame P:38864 Avg QP:19.12 size: 26089
x264 [info]: frame B:105378 Avg QP:21.81 size: 8351
x264 [info]: consecutive B-frames: 4.9% 4.7% 10.8% 39.7% 16.0% 16.8% 2.3% 0.9% 2.5% 1.3%
x264 [info]: mb I I16..4: 14.0% 52.4% 33.7%
x264 [info]: mb P I16..4: 2.0% 10.2% 2.7% P16..4: 29.3% 28.7% 10.0% 0.0% 0.0% skip:17.1%
x264 [info]: mb B I16..4: 0.3% 1.5% 0.3% B16..8: 27.1% 14.6% 2.8% direct: 3.5% skip:49.9% L0:41.4% L1:46.7% BI:12.0%
x264 [info]: 8x8 transform intra:66.7% inter:56.1%
x264 [info]: direct mvs spatial:96.7% temporal:3.3%
x264 [info]: coded y,uvDC,uvAC intra: 79.8% 86.9% 68.5% inter: 14.4% 19.1% 11.3%
x264 [info]: i16 v,h,dc,p: 8% 17% 11% 64%
x264 [info]: i8 v,h,dc,ddl,ddr,vr,hd,vl,hu: 9% 10% 6% 9% 13% 12% 15% 11% 16%
x264 [info]: i4 v,h,dc,ddl,ddr,vr,hd,vl,hu: 11% 13% 4% 9% 14% 12% 14% 10% 14%
x264 [info]: i8c dc,h,v,p: 37% 26% 15% 22%
x264 [info]: Weighted P-Frames: Y:8.5% UV:6.8%
x264 [info]: ref P L0: 52.1% 7.5% 16.2% 6.1% 4.4% 3.5% 2.8% 1.7% 1.5% 1.4% 1.2% 1.3% 0.3% 0.1%
x264 [info]: ref B L0: 76.4% 10.5% 5.0% 2.3% 1.7% 1.2% 1.0% 0.7% 0.6% 0.4% 0.2%
x264 [info]: ref B L1: 92.5% 7.5%
x264 [info]: kb/s:2711.41

x264 [total]: encoded 145619 frames, 4.32 fps, 2711.41 kb/s
--------------------------------------------------------------------------------
Format : Matroska
Format version : Version 2
File size : 2.82 GiB
Duration : 1h 41mn
Overall bit rate : 3 994 Kbps
Movie name : avt83@DHT-Movies
Encoded date : UTC 2013-03-02 07:32:16
Writing application : mkvmerge v4.0.0 ('The Stars were mine') built on Jun 6 2010 16:18:42
Writing library : libebml v1.0.0 + libmatroska v1.0.0

Video
ID : 1
Format : AVC
Format/Info : Advanced Video Codec
Format profile : High@L4.1
Format settings, CABAC : Yes
Format settings, ReFrames : 12 frames
Codec ID : V_MPEG4/ISO/AVC
Duration : 1h 41mn
Bit rate : 2 711 Kbps
Width : 1 280 pixels
Height : 536 pixels
Display aspect ratio : 2.40:1
Frame rate : 23.976 fps
Color space : YUV
Chroma subsampling : 4:2:0
Bit depth : 8 bits
Scan type : Progressive
Bits/(Pixel*Frame) : 0.165
Stream size : 1.86 GiB (66%)
Writing library : x264 core 119 r2106 07efeb4
Encoding settings : cabac=1 / ref=12 / deblock=1:-1:-1 / analyse=0x3:0x113 / me=umh / subme=11 / psy=1 / psy_rd=0.85:0.10 / mixed_ref=1 / me_range=32 / chroma_me=1 / trellis=2 / 8x8dct=1 / cqm=0 / deadzone=21,11 / fast_pskip=0 / chroma_qp_offset=-3 / threads=6 / sliced_threads=0 / nr=0 / decimate=0 / interlaced=0 / bluray_compat=0 / constrained_intra=0 / bframes=9 / b_pyramid=2 / b_adapt=2 / b_bias=0 / direct=3 / weightb=1 / open_gop=0 / weightp=2 / keyint=240 / keyint_min=24 / scenecut=40 / intra_refresh=0 / rc=2pass / mbtree=0 / bitrate=2711 / ratetol=1.0 / qcomp=0.65 / qpmin=0 / qpmax=69 / qpstep=4 / cplxblur=20.0 / qblur=0.5 / ip_ratio=1.40 / pb_ratio=1.30 / aq=1:0.90
Language : English
Default : No
Forced : No

Audio #1
ID : 2
Format : AC-3
Format/Info : Audio Coding 3
Mode extension : CM (complete main)
Format settings, Endianness : Big
Codec ID : A_AC3
Duration : 1h 41mn
Bit rate mode : Constant
Bit rate : 640 Kbps
Channel(s) : 6 channels
Channel positions : Front: L C R, Side: L R, LFE
Sampling rate : 48.0 KHz
Bit depth : 16 bits
Compression mode : Lossy
Stream size : 463 MiB (16%)
Title : Лицензия BD CEE
Language : Russian
Default : No
Forced : Yes

Audio #2
ID : 3
Format : AC-3
Format/Info : Audio Coding 3
Mode extension : CM (complete main)
Format settings, Endianness : Big
Codec ID : A_AC3
Duration : 1h 41mn
Bit rate mode : Constant
Bit rate : 640 Kbps
Channel(s) : 6 channels
Channel positions : Front: L C R, Side: L R, LFE
Sampling rate : 48.0 KHz
Bit depth : 16 bits
Compression mode : Lossy
Stream size : 463 MiB (16%)
Title : Оригинал
Language : English
Default : No
Forced : No

Text #1
ID : 4
Format : UTF-8
Codec ID : S_TEXT/UTF8
Codec ID/Info : UTF-8 Plain Text
Title : full
Language : Russian
Default : No
Forced : No

Text #2
ID : 5
Format : UTF-8
Codec ID : S_TEXT/UTF8
Codec ID/Info : UTF-8 Plain Text
Title : full
Language : English
Default : No
Forced : No




   Похожие торренты   Торрент   Размер 
В этой теме нет новых непрочитанных сообщений. Ральф / Wreck-It Ralph (2012) BDRip 720p от HQ-ViDEO | Лицензия

179 | 7

4.36 ГБ

В этой теме нет новых непрочитанных сообщений. Ральф / Wreck-It Ralph (2012) BDRip | Лицензия

880 | 29

2.18 ГБ

В этой теме нет новых непрочитанных сообщений. Ральф / Wreck-It Ralph (2012) BDRip от HQCLUB | Лицензия

92 | 7

2.18 ГБ

В этой теме нет новых непрочитанных сообщений. Ральф / Wreck-It Ralph (2012) BDRip от Youtracker | D | Лицензия

11 | 4

2.51 ГБ

В этой теме нет новых непрочитанных сообщений. Ральф / Wreck-It Ralph (2012) BDRip от HQ-ViDEO | Лицензия

49 | 10

1.45 ГБ

В этой теме нет новых непрочитанных сообщений. Ральф / Wreck-It Ralph (2012) BDRip от Youtracker | D | Лицензия

786 | 6

1.46 ГБ

В этой теме нет новых непрочитанных сообщений. Ральф / Wreck-It Ralph (2012) BDRip от Youtracker | D | Лицензия

31 | 19

745.05 МБ




Вы не можете начинать темы
Вы не можете отвечать на сообщения
Вы не можете редактировать свои сообщения
Вы не можете удалять свои сообщения
Вы не можете добавлять вложения

Перейти:  
Для Мосгорсуда, Роскомнадзора и рекламодателей: mosgorsud-torrent[собачка]yandex.ru
 Вход
ppkBB3cker v.2 © 2008-2014 @ PPK
[ Time : 0.057s | 15 Queries | GZIP : Off ]

Торрент трекер RUTOR.IN, Не можете зайти на rutor.org? Какой новый адрес рутор? Какое зеркало рутор? Не работает rutor.org и зеркала? Тогда наш торрент специально для вас. Rutor.in неофициальное зеркало rutor. В случае если у Вас заблокирован rutor или вдруг Вы не можете на него зайти, то Вы без труда сможете скачать бесплатно и без рекламы последние новинки кино, игр, сериалов и прочего у нас, на Rutor.in. Не нужно использовать прокси, чтобы зайти на рутор, достаточно воспользоваться нашим ресурсом. Все новые фильмы, игры, сериалы, книги и музыка за 2013 и 2014 годы через торрент бесплатно. Скачивайте фильмы в хорошем качестве, игры для пк, xbox, playstation без регистрации. У нас вы найдете новые Зарубежные сериалы и Русские сериалы 2013, 2014, 2015 годов. Оставайтесь с нами, качайте любимые фильмы, игры, сериалы, книги и музыку.