img image001 image001 image001 image001 image001 image001 image001 image001 image001 image001 image001 image001 image001 image001 image001

Planets Sun Sun Sun
Статистика раздачи
Автор: Снежана | Размер: 1.46 ГБ | Добавлен: 27 июл 2013
Раздают: 5    Качают: 2
Скачать торрент
Скачать торрент
Описание торрента

СообщениеДобавлено: 27 июл 2013 

«Hip Hip Poohray!»

#77
Год выпуска: 1977
Выпущено: США / Walt Disney Productions
Жанр: мультфильм, мюзикл, фэнтези, семейный
Продолжительность: 01:10:58

Перевод: Профессиональный (дублированный) - Невафильм
Оригинальная аудиодорожка: английский
Субтитры: русский, английский, английский (SDH)
Режиссеры: Джон Лоунсбери / John Lounsbery, Вольфганг Райтерман / Wolfgang Reitherman

Роли озвучивали: Себастьян Кабот, Джуниос Мэтьюз, Барбара Ладди, Ховард Моррис, Джон Фидлер, Ральф Райт, Хэл Смит, Клинт Ховард, Брюс Рейтерман, Джон Уолмсли...
Роли дублировали: Станислав Концевич, Георгий Корольчук, Мария Соснякова, Борис Шварцман, Андрей Матвеев...

Описание: Кто такой Винни Пух, знают все. Этот мультфильм производства компании Уолта Диснея основан на оригинальных иллюстрациях четырехтомного собрания о Винни Пухе Эрнеста Шепарда. Познакомьтесь с Винни Пухом, каким его видят англоязычные ценители и который, конечно, отличается от русской версии Бориса Заходера.





Релиз на DVD: 12 марта 2013, «Уолт Дисней Компани СНГ»

Качество видео: DVDRip [DVD5 R5]
Формат видео: AVI

Видео: 672x400 (1.680:1), XViD 2164 Кбит/сек 25,000 fps / Бит/(Пиксели*Кадры): 0.322
Аудио 1: Dolby Digital Audio Russian 384 kbps 5.1 / 48 kHz
Аудио 2: Dolby Digital Audio English 384 kbps 5.1 / 48 kHz
Формат субтитров: SoftSub (srt)

Раздача от:



General
Complete name : Priklyucheniya.Vinni.Puha.1977.D.DVDRip_[Youtracker]_by_avproh.avi
Format : AVI
Format/Info : Audio Video Interleave
File size : 1.46 GiB
Duration : 1h 10mn
Overall bit rate : 2 946 Kbps
Writing application : VirtualDubModRus 1.5.10.2 (build 2542/release)
Writing library : VirtualDubMod build 2542/release

Video
ID : 0
Format : MPEG-4 Visual
Format profile : Advanced Simple@L5
Format settings, BVOP : 1
Format settings, QPel : No
Format settings, GMC : No warppoints
Format settings, Matrix : Custom
Codec ID : XVID
Codec ID/Hint : XviD
Duration : 1h 10mn
Bit rate : 2 164 Kbps
Width : 672 pixels
Height : 400 pixels
Display aspect ratio : 1.680
Frame rate : 25.000 fps
Color space : YUV
Chroma subsampling : 4:2:0
Bit depth : 8 bits
Scan type : Progressive
Compression mode : Lossy
Bits/(Pixel*Frame) : 0.322
Stream size : 1.07 GiB (73%)
Writing library : XviD 64

Audio #1
ID : 1
Format : AC-3
Format/Info : Audio Coding 3
Mode extension : CM (complete main)
Format settings, Endianness : Big
Codec ID : 2000
Duration : 1h 10mn
Bit rate mode : Constant
Bit rate : 384 Kbps
Channel(s) : 6 channels
Channel positions : Front: L C R, Side: L R, LFE
Sampling rate : 48.0 KHz
Bit depth : 16 bits
Compression mode : Lossy
Stream size : 195 MiB (13%)
Alignment : Split accross interleaves
Interleave, duration : 40 ms (1.00 video frame)
Interleave, preload duration : 500 ms

Audio #2
ID : 2
Format : AC-3
Format/Info : Audio Coding 3
Mode extension : CM (complete main)
Format settings, Endianness : Big
Codec ID : 2000
Duration : 1h 10mn
Bit rate mode : Constant
Bit rate : 384 Kbps
Channel(s) : 6 channels
Channel positions : Front: L C R, Side: L R, LFE
Sampling rate : 48.0 KHz
Bit depth : 16 bits
Compression mode : Lossy
Stream size : 195 MiB (13%)
Alignment : Split accross interleaves
Interleave, duration : 40 ms (1.00 video frame)
Interleave, preload duration : 500 ms





   Похожие торренты   Торрент   Размер 
В этой теме нет новых непрочитанных сообщений. Приключения Винни Пуха / The Many Adventures of Winnie the Pooh (1977) DVDRip от Youtracker | D

119 | 8

745.2 МБ

В этой теме нет новых непрочитанных сообщений. Приключения Винни Пуха / The Many Adventures of Winnie the Pooh (1977) DVDRip-AVC от Youtracker | D

157 | 3

1.46 ГБ

В этой теме нет новых непрочитанных сообщений. Приключения Винни Пуха / The Many Adventures of Winnie the Pooh (1977) DVD5 R5 от Youtracker | D

8 | 5

3.41 ГБ

В этой теме нет новых непрочитанных сообщений. Приключения Винни Пуха / The Many Adventures of Winnie the Pooh (1977) BDRip-AVC от 0ptimus | D, P, P2, A

13 | 5

2.35 ГБ

В этой теме нет новых непрочитанных сообщений. Приключения Винни Пуха / The Many Adventures of Winnie the Pooh (1977) BDRip от HQCLUB

58 | 7

1.45 ГБ

В этой теме нет новых непрочитанных сообщений. Приключения Винни Пуха / The Many Adventures of Winnie the Pooh (1977) BDRip от MediaClub

3 | 2

1.48 ГБ

В этой теме нет новых непрочитанных сообщений. Приключения Винни Пуха / The Many Adventures of Winnie the Pooh (1977) BDRip 1080

4 | 3

4.7 ГБ




Вы не можете начинать темы
Вы не можете отвечать на сообщения
Вы не можете редактировать свои сообщения
Вы не можете удалять свои сообщения
Вы не можете добавлять вложения

Перейти:  
Для Мосгорсуда, Роскомнадзора и рекламодателей: mosgorsud-torrent[собачка]yandex.ru
 Вход
ppkBB3cker v.2 © 2008-2014 @ PPK
[ Time : 0.045s | 15 Queries | GZIP : Off ]

cron