img image001 image001 image001 image001 image001 image001 image001 image001 image001 image001 image001 image001 image001 image001 image001

Planets Sun Sun Sun
Статистика раздачи
Автор: Снежана | Размер: 1.46 ГБ | Добавлен: 27 июл 2013
Раздают: 157    Качают: 3
Скачать торрент
Скачать торрент
Описание торрента

СообщениеДобавлено: 27 июл 2013 

«Hip Hip Poohray!»

#77
Год выпуска: 1977
Выпущено: США / Walt Disney Productions
Жанр: мультфильм, мюзикл, фэнтези, семейный
Продолжительность: 01:10:58

Перевод: Профессиональный (дублированный) - Невафильм
Оригинальная аудиодорожка: английский
Субтитры: русский, английский, английский (SDH)
Режиссеры: Джон Лоунсбери / John Lounsbery, Вольфганг Райтерман / Wolfgang Reitherman

Роли озвучивали: Себастьян Кабот, Джуниос Мэтьюз, Барбара Ладди, Ховард Моррис, Джон Фидлер, Ральф Райт, Хэл Смит, Клинт Ховард, Брюс Рейтерман, Джон Уолмсли...
Роли дублировали: Станислав Концевич, Георгий Корольчук, Мария Соснякова, Борис Шварцман, Андрей Матвеев...

Описание: Кто такой Винни Пух, знают все. Этот мультфильм производства компании Уолта Диснея основан на оригинальных иллюстрациях четырехтомного собрания о Винни Пухе Эрнеста Шепарда. Познакомьтесь с Винни Пухом, каким его видят англоязычные ценители и который, конечно, отличается от русской версии Бориса Заходера.





Релиз на DVD: 12 марта 2013, «Уолт Дисней Компани СНГ»

Качество видео: DVDRip-AVC [DVD5 R5]
Формат видео: MKV

Видео: 672x576@968x576 (1.660:1), H264 2167 Кбит/сек 25,000 fps / Бит/(Пиксели*Кадры): 0.224
Аудио 1: Dolby Digital Audio Russian 384 kbps 5.1 / 48 kHz
Аудио 2: Dolby Digital Audio English 384 kbps 5.1 / 48 kHz
Формат субтитров: SoftSub (srt)

Раздача от:



General
Complete name : Priklyucheniya.Vinni.Puha.1977.D.DVDRip-AVC_[Youtracker]_by_avproh.mkv
Format : Matroska
Format version : Version 4 / Version 2
File size : 1.46 GiB
Duration : 1h 11mn
Overall bit rate : 2 934 Kbps
Encoded date : UTC 2013-03-03 12:05:57
Writing application : mkvmerge v6.1.0 ('Old Devil') built on Mar 2 2013 14:32:37
Writing library : libebml v1.3.0 + libmatroska v1.4.0

Video
ID : 1
Format : AVC
Format/Info : Advanced Video Codec
Format profile : High@L4.1
Format settings, CABAC : Yes
Format settings, ReFrames : 11 frames
Codec ID : V_MPEG4/ISO/AVC
Duration : 1h 11mn
Bit rate : 2 167 Kbps
Width : 672 pixels
Height : 576 pixels
Display aspect ratio : 1.660
Original display aspect ratio : 1.659
Frame rate mode : Constant
Frame rate : 25.000 fps
Color space : YUV
Chroma subsampling : 4:2:0
Bit depth : 8 bits
Scan type : Progressive
Bits/(Pixel*Frame) : 0.224
Stream size : 1.05 GiB (72%)
Writing library : x264 core 119 r2106 07efeb4
Encoding settings : cabac=1 / ref=11 / deblock=1:-2:-1 / analyse=0x3:0x113 / me=umh / subme=9 / psy=1 / psy_rd=1.00:0.20 / mixed_ref=1 / me_range=32 / chroma_me=1 / trellis=1 / 8x8dct=1 / cqm=0 / deadzone=21,11 / fast_pskip=0 / chroma_qp_offset=-3 / threads=9 / sliced_threads=0 / nr=0 / decimate=0 / interlaced=0 / bluray_compat=0 / constrained_intra=0 / bframes=8 / b_pyramid=2 / b_adapt=2 / b_bias=0 / direct=3 / weightb=1 / open_gop=0 / weightp=2 / keyint=250 / keyint_min=25 / scenecut=40 / intra_refresh=0 / rc_lookahead=60 / rc=2pass / mbtree=1 / bitrate=2167 / ratetol=1.0 / qcomp=0.60 / qpmin=0 / qpmax=69 / qpstep=4 / cplxblur=20.0 / qblur=0.5 / ip_ratio=1.40 / aq=1:1.00
Language : English
Default : Yes
Forced : No

Audio #1
ID : 2
Format : AC-3
Format/Info : Audio Coding 3
Mode extension : CM (complete main)
Format settings, Endianness : Big
Codec ID : A_AC3
Duration : 1h 11mn
Bit rate mode : Constant
Bit rate : 384 Kbps
Channel(s) : 6 channels
Channel positions : Front: L C R, Side: L R, LFE
Sampling rate : 48.0 KHz
Bit depth : 16 bits
Compression mode : Lossy
Stream size : 195 MiB (13%)
Language : Russian
Default : Yes
Forced : No

Audio #2
ID : 3
Format : AC-3
Format/Info : Audio Coding 3
Mode extension : CM (complete main)
Format settings, Endianness : Big
Codec ID : A_AC3
Duration : 1h 11mn
Bit rate mode : Constant
Bit rate : 384 Kbps
Channel(s) : 6 channels
Channel positions : Front: L C R, Side: L R, LFE
Sampling rate : 48.0 KHz
Bit depth : 16 bits
Compression mode : Lossy
Stream size : 195 MiB (13%)
Language : English
Default : No
Forced : No

Text #1
ID : 4
Format : UTF-8
Codec ID : S_TEXT/UTF8
Codec ID/Info : UTF-8 Plain Text
Language : Russian
Default : No
Forced : No

Text #2
ID : 5
Format : UTF-8
Codec ID : S_TEXT/UTF8
Codec ID/Info : UTF-8 Plain Text
Language : English
Default : No
Forced : No

Text #3
ID : 6
Format : UTF-8
Codec ID : S_TEXT/UTF8
Codec ID/Info : UTF-8 Plain Text
Title : SDH
Language : English
Default : No
Forced : No





   Похожие торренты   Торрент   Размер 
В этой теме нет новых непрочитанных сообщений. Приключения Винни Пуха / The Many Adventures of Winnie the Pooh (1977) DVDRip от Youtracker | D

119 | 8

745.2 МБ

В этой теме нет новых непрочитанных сообщений. Приключения Винни Пуха / The Many Adventures of Winnie the Pooh (1977) DVDRip от Youtracker | D

5 | 2

1.46 ГБ

В этой теме нет новых непрочитанных сообщений. Приключения Винни Пуха / The Many Adventures of Winnie the Pooh (1977) DVD5 R5 от Youtracker | D

8 | 5

3.41 ГБ

В этой теме нет новых непрочитанных сообщений. Приключения Винни Пуха / The Many Adventures of Winnie the Pooh (1977) BDRip от MediaClub

3 | 2

1.48 ГБ

В этой теме нет новых непрочитанных сообщений. Приключения Винни Пуха / The Many Adventures of Winnie the Pooh (1977) BDRip-AVC от 0ptimus | D, P, P2, A

13 | 5

2.35 ГБ

В этой теме нет новых непрочитанных сообщений. Приключения Винни Пуха / The Many Adventures of Winnie the Pooh (1977) BDRip от HQCLUB

58 | 7

1.45 ГБ

В этой теме нет новых непрочитанных сообщений. Приключения Винни Пуха / The Many Adventures of Winnie the Pooh (1977) BDRip 1080

4 | 3

4.7 ГБ




Вы не можете начинать темы
Вы не можете отвечать на сообщения
Вы не можете редактировать свои сообщения
Вы не можете удалять свои сообщения
Вы не можете добавлять вложения

Перейти:  
Для Мосгорсуда, Роскомнадзора и рекламодателей: mosgorsud-torrent[собачка]yandex.ru
 Вход
ppkBB3cker v.2 © 2008-2014 @ PPK
[ Time : 0.109s | 15 Queries | GZIP : Off ]

Торрент трекер RUTOR.IN, Не можете зайти на rutor.org? Какой новый адрес рутор? Какое зеркало рутор? Не работает rutor.org и зеркала? Тогда наш торрент специально для вас. Rutor.in неофициальное зеркало rutor. В случае если у Вас заблокирован rutor или вдруг Вы не можете на него зайти, то Вы без труда сможете скачать бесплатно и без рекламы последние новинки кино, игр, сериалов и прочего у нас, на Rutor.in. Не нужно использовать прокси, чтобы зайти на рутор, достаточно воспользоваться нашим ресурсом. Все новые фильмы, игры, сериалы, книги и музыка за 2013 и 2014 годы через торрент бесплатно. Скачивайте фильмы в хорошем качестве, игры для пк, xbox, playstation без регистрации. У нас вы найдете новые Зарубежные сериалы и Русские сериалы 2013, 2014, 2015 годов. Оставайтесь с нами, качайте любимые фильмы, игры, сериалы, книги и музыку.
cron