img image001 image001 image001 image001 image001 image001 image001 image001 image001 image001 image001 image001 image001 image001 image001

Planets Sun Sun Sun
Статистика раздачи
Автор: Снежана | Размер: 745.2 МБ | Добавлен: 27 июл 2013
Раздают: 119    Качают: 8
Скачать торрент
Скачать торрент
Описание торрента

СообщениеДобавлено: 27 июл 2013 

«Hip Hip Poohray!»

#77
Год выпуска: 1977
Выпущено: США / Walt Disney Productions
Жанр: мультфильм, мюзикл, фэнтези, семейный
Продолжительность: 01:10:58

Перевод: Профессиональный (дублированный) - Невафильм
Оригинальная аудиодорожка: нет
Субтитры: нет
Режиссеры: Джон Лоунсбери / John Lounsbery, Вольфганг Райтерман / Wolfgang Reitherman

Роли озвучивали: Себастьян Кабот, Джуниос Мэтьюз, Барбара Ладди, Ховард Моррис, Джон Фидлер, Ральф Райт, Хэл Смит, Клинт Ховард, Брюс Рейтерман, Джон Уолмсли...
Роли дублировали: Станислав Концевич, Георгий Корольчук, Мария Соснякова, Борис Шварцман, Андрей Матвеев...

Описание: Кто такой Винни Пух, знают все. Этот мультфильм производства компании Уолта Диснея основан на оригинальных иллюстрациях четырехтомного собрания о Винни Пухе Эрнеста Шепарда. Познакомьтесь с Винни Пухом, каким его видят англоязычные ценители и который, конечно, отличается от русской версии Бориса Заходера.





Релиз на DVD: 12 марта 2013, «Уолт Дисней Компани СНГ»

Качество видео: DVDRip [DVD5 R5]
Формат видео: AVI

Видео: 672x400 (1.680:1), XViD 1330 Кбит/сек 25,000 fps / Бит/(Пиксели*Кадры): 0.198
Аудио: MP3 Audio Russian 128 kbps 2.0 / 48 kHz

Раздача от:



General
Complete name : Priklyucheniya.Vinni.Puha.1977.D.DVDRip.745MB_[Youtracker]_by_avproh.avi
Format : AVI
Format/Info : Audio Video Interleave
File size : 745 MiB
Duration : 1h 10mn
Overall bit rate : 1 468 Kbps
Writing application : VirtualDubMod 1.5.10.3 | www.virtualdub-fr.org || (build 2550/release)
Writing library : VirtualDubMod build 2550/release

Video
ID : 0
Format : MPEG-4 Visual
Format profile : Advanced Simple@L5
Format settings, BVOP : 1
Format settings, QPel : No
Format settings, GMC : No warppoints
Format settings, Matrix : Custom
Codec ID : XVID
Codec ID/Hint : XviD
Duration : 1h 10mn
Bit rate : 1 330 Kbps
Width : 672 pixels
Height : 400 pixels
Display aspect ratio : 1.680
Frame rate : 25.000 fps
Color space : YUV
Chroma subsampling : 4:2:0
Bit depth : 8 bits
Scan type : Progressive
Compression mode : Lossy
Bits/(Pixel*Frame) : 0.198
Stream size : 675 MiB (91%)
Writing library : XviD 64

Audio
ID : 1
Format : MPEG Audio
Format version : Version 1
Format profile : Layer 3
Codec ID : 55
Codec ID/Hint : MP3
Duration : 1h 10mn
Bit rate mode : Constant
Bit rate : 128 Kbps
Channel(s) : 2 channels
Sampling rate : 48.0 KHz
Compression mode : Lossy
Stream size : 65.0 MiB (9%)
Alignment : Aligned on interleaves
Interleave, duration : 40 ms (1.00 video frame)
Interleave, preload duration : 504 ms





   Похожие торренты   Торрент   Размер 
В этой теме нет новых непрочитанных сообщений. Приключения Винни Пуха / The Many Adventures of Winnie the Pooh (1977) DVDRip от Youtracker | D

5 | 2

1.46 ГБ

В этой теме нет новых непрочитанных сообщений. Приключения Винни Пуха / The Many Adventures of Winnie the Pooh (1977) DVDRip-AVC от Youtracker | D

157 | 3

1.46 ГБ

В этой теме нет новых непрочитанных сообщений. Приключения Винни Пуха / The Many Adventures of Winnie the Pooh (1977) DVD5 R5 от Youtracker | D

8 | 5

3.41 ГБ

В этой теме нет новых непрочитанных сообщений. Приключения Винни Пуха / The Many Adventures of Winnie the Pooh (1977) BDRip от MediaClub

3 | 2

1.48 ГБ

В этой теме нет новых непрочитанных сообщений. Приключения Винни Пуха / The Many Adventures of Winnie the Pooh (1977) BDRip от HQCLUB

58 | 7

1.45 ГБ

В этой теме нет новых непрочитанных сообщений. Приключения Винни Пуха / The Many Adventures of Winnie the Pooh (1977) BDRip 1080

4 | 3

4.7 ГБ

В этой теме нет новых непрочитанных сообщений. Приключения Винни Пуха / The Many Adventures of Winnie the Pooh (1977) BDRip-AVC от 0ptimus | D, P, P2, A

13 | 5

2.35 ГБ




Вы не можете начинать темы
Вы не можете отвечать на сообщения
Вы не можете редактировать свои сообщения
Вы не можете удалять свои сообщения
Вы не можете добавлять вложения

Перейти:  
Для Мосгорсуда, Роскомнадзора и рекламодателей: mosgorsud-torrent[собачка]yandex.ru
 Вход
ppkBB3cker v.2 © 2008-2014 @ PPK
[ Time : 1.072s | 14 Queries | GZIP : Off ]

Торрент трекер RUTOR.IN, Не можете зайти на rutor.org? Какой новый адрес рутор? Какое зеркало рутор? Не работает rutor.org и зеркала? Тогда наш торрент специально для вас. Rutor.in неофициальное зеркало rutor. В случае если у Вас заблокирован rutor или вдруг Вы не можете на него зайти, то Вы без труда сможете скачать бесплатно и без рекламы последние новинки кино, игр, сериалов и прочего у нас, на Rutor.in. Не нужно использовать прокси, чтобы зайти на рутор, достаточно воспользоваться нашим ресурсом. Все новые фильмы, игры, сериалы, книги и музыка за 2013 и 2014 годы через торрент бесплатно. Скачивайте фильмы в хорошем качестве, игры для пк, xbox, playstation без регистрации. У нас вы найдете новые Зарубежные сериалы и Русские сериалы 2013, 2014, 2015 годов. Оставайтесь с нами, качайте любимые фильмы, игры, сериалы, книги и музыку.