img image001 image001 image001 image001 image001 image001 image001 image001 image001 image001 image001 image001 image001 image001 image001

Planets Sun Sun Sun
Статистика раздачи
Автор: Снежана | Размер: 4.38 ГБ | Добавлен: 27 июл 2013
Раздают: 177    Качают: 14
Скачать торрент
Скачать торрент
Описание торрента

СообщениеДобавлено: 27 июл 2013 

#77

Информация о фильме
Название: Братец медвежонок
Оригинальное название: Brother Bear
Год выхода: 2003
Жанр: Мультфильм, фэнтези, приключения, семейный
Режиссер: Аарон Блэйз, Роберт Уолкерсон
В ролях: Хоакин Феникс, Джереми Суарез, Джейсон Райз, Рик Моранис, Дэйв Томас, Д.Б. Суини, Джоан Коуплэнд, Майкл Кларк Дункан, Харольд Гулд, Пол Кристи, Дэниэл Мастроджорджо, Эстель Харрис, Грег Прупс, Поли Перретт, Дарко Сизар, Бампер Робинсон, Патрик Пинни, Брайан Посен, Филип Проктор, Памела Адлон, Боб Берген, Роджер Бампасс, Дженнифер Дарлинг, Деби Дерриберри, Билл Фармер, Хоуп Леви, Шерри Линн, Микки Макгоун, Кэйтлин Роуз Андерсон

О фильме:
Эта история случилась в Северной Америке еще до прихода бледнолицых завоевателей. Могущественный вождь одного из индейских племен погибает в схватке с медведицей. Его разъяренные сыновья решают отомстить зверю. Младший брат, одержимый местью, решает совершить возмездие в одиночку, но силы леса волшебным образом превращают его самого в медведя. Видя мир глазами животного, он узнает много нового о мире и взаимосвязи всех живых существ. Но внезапно ему также становится известно, что его старший брат вместе с лучшими охотниками племени собирается истребить всех медведей в округе… что означает и его тоже!



Страна: США
Студия: Walt Disney Pictures, Walt Disney Feature Animation
Продолжительность: 01:25:08
Перевод: Дублированный + профессиональный многоголосый + оригинал

Файл
Кодек: MPEG-4 AVC
Качество: BDRip 1080p
Видео: 5080 Кбит/с, 1920x816, 23.976 кадр/с
Звук:
Аудио #1: Русский (AC3, 6 ch, 384 Кбит/с) | Дублированный
Аудио #2: Русский (AC3, 6 ch, 384 Кбит/с) | Профессиональный многоголосый
Аудио #3: Английский (DTS, 6 ch, 1510 Кбит/с)
Субтитры: Русские, английские

Семпл




Полное имя : Bratec.medvezonok.2003.x264.BDRip.(1080p)-MediaClub.mkv
Формат : Matroska
Версия формата : Version 2
Размер файла : 4,38 Гбайт
Продолжительность : 1 ч. 25 м.
Общий поток : 7361 Кбит/сек
Название фильма : = MediaClub = rip by Painter
Дата кодирования : UTC 2013-03-03 15:14:01
Программа кодирования : mkvmerge v5.4.0 ('Piper') built on Mar 10 2012 13:34:39
Библиотека кодирования : libebml v1.2.3 + libmatroska v1.3.0

Видео
Идентификатор : 1
Формат : AVC
Формат/Информация : Advanced Video Codec
Профиль формата : High@L4.1
Параметр CABAC формата : Да
Параметр ReFrames формата : 5 кадров
Идентификатор кодека : V_MPEG4/ISO/AVC
Продолжительность : 1 ч. 25 м.
Битрейт : 5080 Кбит/сек
Ширина : 1920 пикселей
Высота : 816 пикселей
Соотношение сторон : 2,35:1
Режим частоты кадров : Постоянный
Частота кадров : 23,976 кадра/сек
Цветовое пространство : YUV
Субдискретизация насыщенности : 4:2:0
Битовая глубина : 8 бит
Тип развёртки : Прогрессивная
Бит/(Пиксели*Кадры) : 0.135
Размер потока : 2,94 Гбайт (67%)
Библиотека кодирования : x264 core 125 r2208 d9d2288
Настройки программы : cabac=1 / ref=5 / deblock=1:-2:-2 / analyse=0x3:0x133 / me=umh / subme=11 / psy=1 / psy_rd=0.90:0.00 / mixed_ref=1 / me_range=48 / chroma_me=1 / trellis=2 / 8x8dct=1 / cqm=0 / deadzone=21,11 / fast_pskip=0 / chroma_qp_offset=-2 / threads=6 / lookahead_threads=1 / sliced_threads=0 / nr=0 / decimate=0 / interlaced=0 / bluray_compat=0 / constrained_intra=0 / bframes=7 / b_pyramid=2 / b_adapt=2 / b_bias=0 / direct=3 / weightb=1 / open_gop=0 / weightp=2 / keyint=240 / keyint_min=23 / scenecut=40 / intra_refresh=0 / rc_lookahead=90 / rc=2pass / mbtree=1 / bitrate=5080 / ratetol=1.0 / qcomp=0.70 / qpmin=0 / qpmax=69 / qpstep=4 / cplxblur=20.0 / qblur=0.5 / ip_ratio=1.40 / aq=1:0.60
Язык : English
Default : Да
Forced : Нет

Аудио #1
Идентификатор : 2
Формат : AC-3
Формат/Информация : Audio Coding 3
Расширение режима : CM (complete main)
Параметр Endianness формата : Big
Идентификатор кодека : A_AC3
Продолжительность : 1 ч. 25 м.
Вид битрейта : Постоянный
Битрейт : 384 Кбит/сек
Каналы : 6 каналов
Расположение каналов : Front: L C R, Side: L R, LFE
Частота : 48,0 КГц
Битовая глубина : 16 бит
Метод сжатия : С потерями
Размер потока : 234 Мбайт (5%)
Заголовок : Дубляж
Язык : Russian
Default : Да
Forced : Нет

Аудио #2
Идентификатор : 3
Формат : AC-3
Формат/Информация : Audio Coding 3
Расширение режима : CM (complete main)
Параметр Endianness формата : Big
Идентификатор кодека : A_AC3
Продолжительность : 1 ч. 25 м.
Вид битрейта : Постоянный
Битрейт : 384 Кбит/сек
Каналы : 6 каналов
Расположение каналов : Front: L C R, Side: L R, LFE
Частота : 48,0 КГц
Битовая глубина : 16 бит
Метод сжатия : С потерями
Размер потока : 234 Мбайт (5%)
Заголовок : Многоголосый
Язык : Russian
Default : Нет
Forced : Нет

Аудио #3
Идентификатор : 4
Формат : DTS
Формат/Информация : Digital Theater Systems
Режим : 16
Параметр Endianness формата : Big
Идентификатор кодека : A_DTS
Продолжительность : 1 ч. 25 м.
Вид битрейта : Постоянный
Битрейт : 1509 Кбит/сек
Каналы : 6 каналов
Расположение каналов : Front: L C R, Side: L R, LFE
Частота : 48,0 КГц
Битовая глубина : 24 бит
Метод сжатия : С потерями
Размер потока : 919 Мбайт (20%)
Язык : English
Default : Нет
Forced : Нет

Текст #1
Идентификатор : 5
Формат : UTF-8
Идентификатор кодека : S_TEXT/UTF8
Идентификатор кодека/Информация : UTF-8 Plain Text
Язык : Russian
Default : Нет
Forced : Нет

Текст #2
Идентификатор : 6
Формат : UTF-8
Идентификатор кодека : S_TEXT/UTF8
Идентификатор кодека/Информация : UTF-8 Plain Text
Язык : English
Default : Нет
Forced : Нет

Меню
00:00:00.000 : :Chapter 01
00:02:01.287 : :Chapter 02
00:07:03.464 : :Chapter 03
00:11:24.099 : :Chapter 04
00:14:33.205 : :Chapter 05
00:15:21.253 : :Chapter 06
00:20:10.083 : :Chapter 07
00:24:34.473 : :Chapter 08
00:27:06.708 : :Chapter 09
00:29:45.617 : :Chapter 10
00:33:01.187 : :Chapter 11
00:36:18.926 : :Chapter 12
00:38:26.053 : :Chapter 13
00:42:22.581 : :Chapter 14
00:44:18.030 : :Chapter 15
00:47:10.369 : :Chapter 16
00:48:59.518 : :Chapter 17
00:50:16.054 : :Chapter 18
00:54:21.132 : :Chapter 19
00:56:46.777 : :Chapter 20
01:00:11.316 : :Chapter 21
01:04:58.895 : :Chapter 22
01:08:28.854 : :Chapter 23
01:09:14.817 : :Chapter 24
01:11:20.109 : :Chapter 25
01:16:55.986 : :Chapter 26
01:18:01.468 : :Chapter 27
01:19:29.139 : :Chapter 28
01:25:03.555 : :Chapter 29


Релиз от:
Автор рипа: Painter
За исходник спасибо HDTracker



   Похожие торренты   Торрент   Размер 
В этой теме нет новых непрочитанных сообщений. Братец медвежонок 2: Лоси в бегах / Brother Bear 2 (2003) BDRip 1080p от MediaClub

43 | 5

3.83 ГБ

В этой теме нет новых непрочитанных сообщений. Братец медвежонок / Brother Bear (2003) BDRip-AVC от MediaClub

100 | 14

1.97 ГБ

В этой теме нет новых непрочитанных сообщений. Братец медвежонок [Дилогия] / Brother Bear (2003-2006) BDRip от MediaClub | КПК

103 | 18

714.05 МБ

В этой теме нет новых непрочитанных сообщений. Братец медвежонок / Brother Bear (2003) BDRemux 1080p от HDTracker

2 | 6

21.15 ГБ

В этой теме нет новых непрочитанных сообщений. Братец медвежонок / Brother Bear (2003) BDRip-AVC | iPhone | D

68 | 7

1.01 ГБ

В этой теме нет новых непрочитанных сообщений. Братец медвежонок / Brother Bear (2003) BDRip от HQCLUB

1107 | 29

1.45 ГБ

В этой теме нет новых непрочитанных сообщений. Братец медвежонок / Brother Bear (2003) BDRip-AVC | iPad

33 | 3

1.12 ГБ




Вы не можете начинать темы
Вы не можете отвечать на сообщения
Вы не можете редактировать свои сообщения
Вы не можете удалять свои сообщения
Вы не можете добавлять вложения

Перейти:  
Для Мосгорсуда, Роскомнадзора и рекламодателей: mosgorsud-torrent[собачка]yandex.ru
 Вход
ppkBB3cker v.2 © 2008-2014 @ PPK
[ Time : 0.553s | 16 Queries | GZIP : On ]

Торрент трекер RUTOR.IN, Не можете зайти на rutor.org? Какой новый адрес рутор? Какое зеркало рутор? Не работает rutor.org и зеркала? Тогда наш торрент специально для вас. Rutor.in неофициальное зеркало rutor. В случае если у Вас заблокирован rutor или вдруг Вы не можете на него зайти, то Вы без труда сможете скачать бесплатно и без рекламы последние новинки кино, игр, сериалов и прочего у нас, на Rutor.in. Не нужно использовать прокси, чтобы зайти на рутор, достаточно воспользоваться нашим ресурсом. Все новые фильмы, игры, сериалы, книги и музыка за 2013 и 2014 годы через торрент бесплатно. Скачивайте фильмы в хорошем качестве, игры для пк, xbox, playstation без регистрации. У нас вы найдете новые Зарубежные сериалы и Русские сериалы 2013, 2014, 2015 годов. Оставайтесь с нами, качайте любимые фильмы, игры, сериалы, книги и музыку.