img image001 image001 image001 image001 image001 image001 image001 image001 image001 image001 image001 image001 image001 image001 image001

Planets Sun Sun Sun
Статистика раздачи
Автор: Снежана | Размер: 1.47 ГБ | Добавлен: 27 июл 2013
Раздают: 60    Качают: 5
Скачать торрент
Скачать торрент
Описание торрента

СообщениеДобавлено: 27 июл 2013 

#77

Информация о фильме
Название: Братец медвежонок 2: Лоси в бегах
Оригинальное название: Brother Bear 2
Год выхода: 2006
Жанр: Мультфильм, фэнтези, приключения, семейный
Режиссер: Бенджамин Глюк
В ролях: Патрик Демпси, Мэнди Мур, Джереми Суарес, Рик Морэнис, Дэйв Томас, Андреа Мартин, Кэтрин О’Хара, Ванда Сайкес, Уэнди Мэлик, Кэти Нэджими, Майкл Кларк Дункан, Джим Каммингс, Джефф Беннетт, Тресс МакНилл, Джек Вебер, Джесси Флауер, Джейсон Мэрсден, Бенжамин Брайан, Криста Свон, Оливье Барру, Бруно Хоэль, Кад Мерад

О фильме:
Кенай был наказан за его несострадательность к братьям нашим меньшим, и нашел истинное счастье и смысл всех своих стремлений со своим новым младшим братиком, Кодой. Однако, когда старая подруга Кенаи, девушка по имени Нита, готовится к свадьбе с другим мужчиной, духи посылают знак о том, что между Кенаи и Нитой по-прежнему существуют сильные чувства...



Страна: США
Студия: DisneyToon Studios
Продолжительность: 01:13:26
Перевод: Дублированный + авторский одноголосый + оригинал

Файл
Кодек: MPEG-4 AVC
Качество: BDRip-AVC
Видео: 2000 Кбит/с, 1024x576, 23.976 кадр/с
Звук:
Аудио #1: Русский (AC3, 2 ch, 192 Кбит/с) | Дублированный
Аудио #2: Русский (AC3, 2 ch, 224 Кбит/с) | Авторский одноголосый (Е. Гранкин)
Аудио #3: Английский (AC3, 6 ch, 448 Кбит/с)
Субтитры: Русские, английские

Семпл


Полное имя : Bratecz.medvezhonok.2.2006.x264.BDRip.(AVC)-MediaClub.mkv
Формат : Matroska
Версия формата : Version 2
Размер файла : 1,47 Гбайт
Продолжительность : 1 ч. 13 м.
Общий поток : 2864 Кбит/сек
Название фильма : = MediaClub = rip by Painter
Дата кодирования : UTC 2013-03-04 08:02:33
Программа кодирования : mkvmerge v5.4.0 ('Piper') built on Mar 10 2012 13:34:39
Библиотека кодирования : libebml v1.2.3 + libmatroska v1.3.0

Видео
Идентификатор : 1
Формат : AVC
Формат/Информация : Advanced Video Codec
Профиль формата : High@L4.1
Параметр CABAC формата : Да
Параметр ReFrames формата : 9 кадров
Идентификатор кодека : V_MPEG4/ISO/AVC
Продолжительность : 1 ч. 13 м.
Битрейт : 2000 Кбит/сек
Ширина : 1024 пикселя
Высота : 576 пикселей
Соотношение сторон : 16:9
Режим частоты кадров : Постоянный
Частота кадров : 23,976 кадра/сек
Цветовое пространство : YUV
Субдискретизация насыщенности : 4:2:0
Битовая глубина : 8 бит
Тип развёртки : Прогрессивная
Бит/(Пиксели*Кадры) : 0.141
Размер потока : 1020 Мбайт (68%)
Библиотека кодирования : x264 core 125 r2208 d9d2288
Настройки программы : cabac=1 / ref=9 / deblock=1:-2:-2 / analyse=0x3:0x133 / me=umh / subme=11 / psy=1 / psy_rd=0.90:0.00 / mixed_ref=1 / me_range=48 / chroma_me=1 / trellis=2 / 8x8dct=1 / cqm=0 / deadzone=21,11 / fast_pskip=0 / chroma_qp_offset=-2 / threads=6 / lookahead_threads=1 / sliced_threads=0 / nr=0 / decimate=0 / interlaced=0 / bluray_compat=0 / constrained_intra=0 / bframes=7 / b_pyramid=2 / b_adapt=2 / b_bias=0 / direct=3 / weightb=1 / open_gop=0 / weightp=2 / keyint=240 / keyint_min=23 / scenecut=40 / intra_refresh=0 / rc_lookahead=90 / rc=2pass / mbtree=1 / bitrate=2000 / ratetol=1.0 / qcomp=0.70 / qpmin=0 / qpmax=69 / qpstep=4 / cplxblur=20.0 / qblur=0.5 / ip_ratio=1.40 / aq=1:0.60
Язык : English
Default : Да
Forced : Нет

Аудио #1
Идентификатор : 2
Формат : AC-3
Формат/Информация : Audio Coding 3
Расширение режима : CM (complete main)
Параметр Endianness формата : Big
Идентификатор кодека : A_AC3
Продолжительность : 1 ч. 13 м.
Вид битрейта : Постоянный
Битрейт : 192 Кбит/сек
Каналы : 2 канала
Расположение каналов : Front: L R
Частота : 48,0 КГц
Битовая глубина : 16 бит
Метод сжатия : С потерями
Размер потока : 101 Мбайт (7%)
Заголовок : Дубляж
Язык : Russian
Default : Да
Forced : Нет

Аудио #2
Идентификатор : 3
Формат : AC-3
Формат/Информация : Audio Coding 3
Расширение режима : CM (complete main)
Параметр Endianness формата : Big
Идентификатор кодека : A_AC3
Продолжительность : 1 ч. 13 м.
Вид битрейта : Постоянный
Битрейт : 224 Кбит/сек
Каналы : 2 канала
Расположение каналов : Front: L R
Частота : 48,0 КГц
Битовая глубина : 16 бит
Метод сжатия : С потерями
Размер потока : 118 Мбайт (8%)
Заголовок : Гранкин
Язык : Russian
Default : Нет
Forced : Нет

Аудио #3
Идентификатор : 4
Формат : AC-3
Формат/Информация : Audio Coding 3
Расширение режима : CM (complete main)
Параметр Endianness формата : Big
Идентификатор кодека : A_AC3
Продолжительность : 1 ч. 13 м.
Вид битрейта : Постоянный
Битрейт : 448 Кбит/сек
Каналы : 6 каналов
Расположение каналов : Front: L C R, Side: L R, LFE
Частота : 48,0 КГц
Битовая глубина : 16 бит
Метод сжатия : С потерями
Размер потока : 235 Мбайт (16%)
Язык : English
Default : Нет
Forced : Нет

Текст #1
Идентификатор : 5
Формат : UTF-8
Идентификатор кодека : S_TEXT/UTF8
Идентификатор кодека/Информация : UTF-8 Plain Text
Язык : Russian
Default : Нет
Forced : Нет

Текст #2
Идентификатор : 6
Формат : UTF-8
Идентификатор кодека : S_TEXT/UTF8
Идентификатор кодека/Информация : UTF-8 Plain Text
Язык : English
Default : Нет
Forced : Нет

Меню
00:00:00.000 : :Chapter 01
00:04:05.870 : :Chapter 02
00:06:47.907 : :Chapter 03
00:10:46.311 : :Chapter 04
00:13:53.624 : :Chapter 05
00:23:25.112 : :Chapter 06
00:27:31.983 : :Chapter 07
00:32:45.129 : :Chapter 08
00:43:51.670 : :Chapter 09
00:48:40.833 : :Chapter 10
00:57:11.302 : :Chapter 11
01:01:27.517 : :Chapter 12
01:13:14.389 : :Chapter 13



Релиз от:
Автор рипа: Painter
За исходник спасибо HDTracker



   Похожие торренты   Торрент   Размер 
В этой теме нет новых непрочитанных сообщений. Братец медвежонок 2: Лоси в бегах / Brother Bear 2 (2006) BDRip-AVC | iPhone | D

64 | 13

700.88 МБ

В этой теме нет новых непрочитанных сообщений. Братец медвежонок 2: Лоси в бегах / Brother Bear 2 (2006) BDRip от HQCLUB

324 | 19

1.46 ГБ

В этой теме нет новых непрочитанных сообщений. Братец медвежонок 2: Лоси в бегах / Brother Bear 2 (2006) BDRip-AVC | iPad

22 | 5

974.71 МБ

В этой теме нет новых непрочитанных сообщений. Братец медвежонок 2: Лоси в бегах / Brother Bear 2 (2003) BDRip 1080p от MediaClub

43 | 5

3.83 ГБ

В этой теме нет новых непрочитанных сообщений. Братец медвежонок 2: Лоси в бегах / Brother Bear 2 (2006) DVD9

0 | 3

4.78 ГБ

В этой теме нет новых непрочитанных сообщений. Братец медвежонок 2: Лоси в бегах / Brother Bear 2 (2006) BDRip 720p от Leonardo and Scarabey | Лицензия

602 | 40

1.64 ГБ

В этой теме нет новых непрочитанных сообщений. Братец медвежонок 2: Лоси в бегах / Brother Bear 2 (2006) BDRemux 1080p от HDTracker

0 | 3

17.89 ГБ




Вы не можете начинать темы
Вы не можете отвечать на сообщения
Вы не можете редактировать свои сообщения
Вы не можете удалять свои сообщения
Вы не можете добавлять вложения

Перейти:  
Для Мосгорсуда, Роскомнадзора и рекламодателей: mosgorsud-torrent[собачка]yandex.ru
 Вход
ppkBB3cker v.2 © 2008-2014 @ PPK
[ Time : 0.055s | 14 Queries | GZIP : Off ]

Торрент трекер RUTOR.IN, Не можете зайти на rutor.org? Какой новый адрес рутор? Какое зеркало рутор? Не работает rutor.org и зеркала? Тогда наш торрент специально для вас. Rutor.in неофициальное зеркало rutor. В случае если у Вас заблокирован rutor или вдруг Вы не можете на него зайти, то Вы без труда сможете скачать бесплатно и без рекламы последние новинки кино, игр, сериалов и прочего у нас, на Rutor.in. Не нужно использовать прокси, чтобы зайти на рутор, достаточно воспользоваться нашим ресурсом. Все новые фильмы, игры, сериалы, книги и музыка за 2013 и 2014 годы через торрент бесплатно. Скачивайте фильмы в хорошем качестве, игры для пк, xbox, playstation без регистрации. У нас вы найдете новые Зарубежные сериалы и Русские сериалы 2013, 2014, 2015 годов. Оставайтесь с нами, качайте любимые фильмы, игры, сериалы, книги и музыку.