img image001 image001 image001 image001 image001 image001 image001 image001 image001 image001 image001 image001 image001 image001 image001

Planets Sun Sun Sun
Статистика раздачи
Автор: Снежана | Размер: 1.25 ГБ | Добавлен: 27 июл 2013
Раздают: 9    Качают: 5
Скачать торрент
Скачать торрент
Описание торрента

СообщениеДобавлено: 27 июл 2013 

#77

Информация о фильме
Название: Ральф
Оригинальное название: Wreck-It Ralph
Год выхода: 2012
Жанр: мультфильм, комедия, приключения, семейный
Режиссер: Рич Мур
В ролях: Джон Си Райли, Джек МакБрайер, Сара Силверман, Джейн Линч, Алан Тьюдик, Минди Калинг, Джо Ло Трульо, Эд О’Нил, Деннис Хейсбёрт, Эди МакКлёрг

О фильме:
Ральф — второстепенный персонаж восьмибитной компьютерной игры, и ему надоело находиться в тени главного героя, мастера на все руки Феликса, который всегда появляется, чтобы «исправить» ситуацию! После тридцати лет добросовестной работы в роли злодея, в течение которых все похвалы выпадали на долю Феликса, Ральф больше не хочет быть плохим.

Он решает отправиться в путешествие по аркадным играм разных жанров, чтобы доказать всем, что и он тоже может быть героем. На своем пути Ральф встречает героев разных игр — хладнокровную сержанта Калхун из игры Hero’s Duty, оберегающую планету от нашествия инопланетных захватчиков, и сладкую на вид, но острую на язычок Сластену фон Дю, чье существование в гоночном симуляторе Sugar Rush внезапно оказывается под угрозой. Наконец-то Ральфу выпадает шанс показать, что он умеет не только разрушать!


Страна: США
Продолжительность: 01:41:13
Перевод: Профессиональный (дублированный)

Файл
Кодек: H.264
Качество: HDRip Исходник: BDRip 1080p
Видео: 640x354 (852х354 анаморф), ~2.4:1, 1500 Kbps, 23.976 fps
Звук:
Русская дорожка, AAC, 2 канала, 48.0 KHz, 128 Kbps, F L,R
Английская дорожка, AAC, 2 канала, 48.0 KHz, 128 Kbps, F L,R
Субтитры: Русские и Английские

Код:
Media Type: Movie
XID: Apple:vendor_id:2012-577679650
Content ID: 577679650
ScreenWriters: Фил Джонстон, Дженнифер Ли, Рич Мур
Producers: Кларк Спенсер, Моника Лаго-Кэйтис, Джон Лассетер
Director: Джо Райт
Cast: Джон Си Райли, Джек МакБрайер, Сара Силверман, Джейн Линч, Алан Тьюдик, Минди Калинг, Джо Ло Трульо, Эд О’Нил, Деннис Хейсбёрт, Эди МакКлёрг
Rating: PG
Long Deion: Ральф — второстепенный персонаж восьмибитной компьютерной игры, и ему надоело находиться в тени главного героя, мастера на все руки Феликса, который всегда появляется, чтобы «исправить» ситуацию! После тридцати лет добросовестной работы в роли злодея, в течение которых все похвалы выпадали на долю Феликса, Ральф больше не хочет быть плохим. Он решает отправиться в путешествие по аркадным играм разных жанров, чтобы доказать всем, что и он тоже может быть героем. На своем пути Ральф встречает героев разных игр — хладнокровную сержанта Калхун из игры Hero’s Duty, оберегающую планету от нашествия инопланетных захватчиков, и сладкую на вид, но острую на язычок Сластену фон Дю, чье существование в гоночном симуляторе Sugar Rush внезапно оказывается под угрозой. Наконец-то Ральфу выпадает шанс показать, что он умеет не только разрушать!
Deion: Ральф — второстепенный персонаж восьмибитной компьютерной игры, и ему надоело находиться в тени главного героя, мастера на все руки Феликса, который всегда появляется, чтобы «исправить» ситуацию! После тридцати лет добросовестной работы...
Release Date: 2012-11-01T07:00:00Z
Genre:  мультфильм, комедия, приключения, семейный
Artist: Джо Райт
Name: Ральф
Код:
General
Complete name                            : C:UsersNarekDesktopРальф, Wreck-It Ralph.mp4
Format                                   : MPEG-4
Format profile                           : Base Media
Codec ID                                 : isom
File size                                : 1.25 GiB
Duration                                 : 1h 41mn
Overall bit rate mode                    : Variable
Overall bit rate                         : 1 766 Kbps
Movie name                               : Ральф
Performer                                : Джо Райт
Genre                                    :  мультфильм, комедия, приключения, семейный
Recorded date                            : UTC 2012-11-01 07:00:00
Encoded date                             : UTC 2013-03-01 19:46:10
Tagged date                              : UTC 2013-03-02 20:49:16
Writing application                      : Yamb 2.1.0.0 [http://yamb.unite-video.com]
Cover                                    : Yes
desc                                     : Ральф — второстепенный персонаж восьмибитной компьютерной игры, и ему надоело находиться в тени главного героя, мастера на все руки Феликса, который всегда появляется, чтобы «исправить» ситуацию! После тридцати лет добросовестной работы...
ldes                                     : Ральф — второстепенный персонаж восьмибитной компьютерной игры, и ему надоело находиться в тени главного героя, мастера на все руки Феликса, который всегда появляется, чтобы «исправить» ситуацию! После тридцати лет добросовестной работы в роли злодея, в течение которых все похвалы выпадали на долю Феликса, Ральф больше не хочет быть плохим. Он решает отправиться в путешествие по аркадным играм разных жанров, чтобы доказать всем, что и он тоже может быть героем. На своем пути Ральф встречает героев разных игр — хладнокровную сержанта Калхун из игры Hero’s Duty, оберегающую планету от нашествия инопланетных захватчиков, и сладкую на вид, но острую на язычок Сластену фон Дю, чье существование в гоночном симуляторе Sugar Rush внезапно оказывается под угрозой. Наконец-то Ральфу выпадает шанс показать, что он умеет не только разрушать!
hdvd                                     : 0
stik                                     : 9
cnID                                     : 577679650
xid                                      : Apple:vendor_id:2012-577679650
iTunEXTC                                 : mpaa|PG|200|

Video
ID                                       : 1
Format                                   : AVC
Format/Info                              : Advanced Video Codec
Format profile                           : Baseline@L3.0
Format settings, CABAC                   : No
Format settings, ReFrames                : 2 frames
Codec ID                                 : avc1
Codec ID/Info                            : Advanced Video Coding
Duration                                 : 1h 41mn
Bit rate                                 : 1 500 Kbps
Maximum bit rate                         : 7 698 Kbps
Width                                    : 640 pixels
Height                                   : 354 pixels
Display aspect ratio                     : 2.40:1
Original display aspect ratio            : 2.40:1
Frame rate mode                          : Variable
Frame rate                               : 23.976 fps
Minimum frame rate                       : 23.810 fps
Maximum frame rate                       : 24.390 fps
Color space                              : YUV
Chroma subsampling                       : 4:2:0
Bit depth                                : 8 bits
Scan type                                : Progressive
Bits/(Pixel*Frame)                       : 0.276
Stream size                              : 1.06 GiB (85%)
Writing library                          : x264 core 120
Encoding settings                        : cabac=0 / ref=2 / deblock=1:0:0 / analyse=0x1:0x111 / me=umh / subme=6 / psy=1 / psy_rd=1.00:0.00 / mixed_ref=1 / me_range=16 / chroma_me=1 / trellis=0 / 8x8dct=0 / cqm=0 / deadzone=21,11 / fast_pskip=1 / chroma_qp_offset=-2 / threads=3 / sliced_threads=0 / nr=0 / decimate=1 / interlaced=0 / bluray_compat=0 / constrained_intra=0 / bframes=0 / weightp=0 / keyint=240 / keyint_min=24 / scenecut=40 / intra_refresh=0 / rc_lookahead=40 / rc=2pass / mbtree=1 / bitrate=1500 / ratetol=1.0 / qcomp=0.60 / qpmin=3 / qpmax=69 / qpstep=4 / cplxblur=20.0 / qblur=0.5 / vbv_maxrate=5000 / vbv_bufsize=5000 / nal_hrd=none / ip_ratio=1.40 / aq=1:1.00
Encoded date                             : UTC 2013-03-01 18:34:29
Tagged date                              : UTC 2013-03-01 19:50:11
Color primaries                          : BT.601-6 525, BT.1358 525, BT.1700 NTSC, SMPTE 170M
Transfer characteristics                 : BT.709-5, BT.1361
Matrix coefficients                      : BT.601-6 525, BT.1358 525, BT.1700 NTSC, SMPTE 170M

Audio #1
ID                                       : 2
Format                                   : AAC
Format/Info                              : Advanced Audio Codec
Format profile                           : LC
Codec ID                                 : 40
Duration                                 : 1h 41mn
Bit rate mode                            : Variable
Bit rate                                 : 128 Kbps
Maximum bit rate                         : 297 Kbps
Channel(s)                               : 2 channels
Channel positions                        : Front: L R
Sampling rate                            : 48.0 KHz
Compression mode                         : Lossy
Stream size                              : 92.7 MiB (7%)
Language                                 : Russian
Encoded date                             : UTC 2013-03-01 19:49:35
Tagged date                              : UTC 2013-03-01 19:50:11

Audio #2
ID                                       : 3
Format                                   : AAC
Format/Info                              : Advanced Audio Codec
Format profile                           : LC
Codec ID                                 : 40
Duration                                 : 1h 41mn
Bit rate mode                            : Variable
Bit rate                                 : 128 Kbps
Maximum bit rate                         : 297 Kbps
Channel(s)                               : 2 channels
Channel positions                        : Front: L R
Sampling rate                            : 48.0 KHz
Compression mode                         : Lossy
Stream size                              : 92.7 MiB (7%)
Language                                 : English
Encoded date                             : UTC 2013-03-01 19:49:56
Tagged date                              : UTC 2013-03-01 19:50:11

Text #1
ID                                       : 4
Format                                   : Timed text
Muxing mode                              : sbtl
Codec ID                                 : tx3g
Duration                                 : 1h 33mn
Bit rate mode                            : Variable
Bit rate                                 : 115 bps
Stream size                              : 78.1 KiB (0%)
Language                                 : Russian
Encoded date                             : UTC 2013-03-01 19:50:10
Tagged date                              : UTC 2013-03-01 19:50:11

Text #2
ID                                       : 5
Format                                   : Timed text
Muxing mode                              : sbtl
Codec ID                                 : tx3g
Duration                                 : 1h 33mn
Bit rate mode                            : Variable
Bit rate                                 : 73 bps
Stream size                              : 49.4 KiB (0%)
Language                                 : English
Encoded date                             : UTC 2013-03-01 19:50:10
Tagged date                              : UTC 2013-03-01 19:50:11

Text #3
ID                                       : 6
Format                                   : Apple text
Codec ID                                 : text
Duration                                 : 1h 41mn
Duration_LastFrame                       : -8mn 46s
Bit rate mode                            : Variable
Bit rate                                 : 0 bps
Stream size                              : 288 Bytes (0%)
Encoded date                             : UTC 2013-03-02 20:49:16
Tagged date                              : UTC 2013-03-02 20:49:16
Код:
x264 [info]: frame I:2762  Avg QP:16.56  size: 37223  PSNR Mean Y:47.19 U:50.18 V:49.26 Avg:47.83 Global:46.65
x264 [info]: frame P:142855 Avg QP:18.23  size:  7236  PSNR Mean Y:45.28 U:48.19 V:47.33 Avg:45.90 Global:45.03
x264 [info]: mb I  I16..4: 18.8%  0.0% 81.2%
x264 [info]: mb P  I16..4:  1.5%  0.0%  4.6%  P16..4: 31.9% 17.0%  7.9%  0.0%  0.0%    skip:37.0%
x264 [info]: coded y,uvDC,uvAC intra: 68.7% 86.8% 69.8% inter: 21.8% 25.8% 12.1%
x264 [info]: i16 v,h,dc,p: 35% 21% 10% 35%
x264 [info]: i4 v,h,dc,ddl,ddr,vr,hd,vl,hu: 31% 17% 13%  6%  7%  7%  6%  6%  5%
x264 [info]: i8c dc,h,v,p: 43% 20% 26% 12%
x264 [info]: ref P L0: 75.3% 24.7%
x264 [info]: SSIM Mean Y:0.9885179 (19.400db)
x264 [info]: PSNR Mean Y:45.311 U:48.232 V:47.366 Avg:45.940 Global:45.060 kb/s:1497.08




   Похожие торренты   Торрент   Размер 
В этой теме нет новых непрочитанных сообщений. Ральф / Wreck-It Ralph (2012) HDRip от BT4G | КПК

18 | 6

699.63 МБ

В этой теме нет новых непрочитанных сообщений. Ральф / Wreck-It Ralph (2012) HDRip-AVC | Лицензия

327 | 16

747.44 МБ

В этой теме нет новых непрочитанных сообщений. Ральф / Wreck-It Ralph (2012) HDRip от Scarabey | D | Лицензия

2165 | 79

1.45 ГБ

В этой теме нет новых непрочитанных сообщений. Ральф / Wreck-It Ralph (2012) HDRip от Scarabey | D | Лицензия

80 | 7

742.15 МБ

В этой теме нет новых непрочитанных сообщений. Ральф / Wreck-It Ralph (Рич Мур) [2012, мультфильм, комедия, семейный, HDRip-AVC] DUB / Walt Disney

925 | 29

1.45 ГБ

В этой теме нет новых непрочитанных сообщений. Ральф / Wreck-It Ralph (2012) BDRip-AVC | 60 FPS

13 | 4

2.2 ГБ

В этой теме нет новых непрочитанных сообщений. Ральф / Wreck-It Ralph (2012) DVD5

3 | 3

4.32 ГБ




Вы не можете начинать темы
Вы не можете отвечать на сообщения
Вы не можете редактировать свои сообщения
Вы не можете удалять свои сообщения
Вы не можете добавлять вложения

Перейти:  
Для Мосгорсуда, Роскомнадзора и рекламодателей: mosgorsud-torrent[собачка]yandex.ru
 Вход
ppkBB3cker v.2 © 2008-2014 @ PPK
[ Time : 0.043s | 14 Queries | GZIP : Off ]
CGP output time : 0.128s | 5 Queries | GZIP : Off

Торрент трекер RUTOR.IN, Не можете зайти на rutor.org? Какой новый адрес рутор? Какое зеркало рутор? Не работает rutor.org и зеркала? Тогда наш торрент специально для вас. Rutor.in неофициальное зеркало rutor. В случае если у Вас заблокирован rutor или вдруг Вы не можете на него зайти, то Вы без труда сможете скачать бесплатно и без рекламы последние новинки кино, игр, сериалов и прочего у нас, на Rutor.in. Не нужно использовать прокси, чтобы зайти на рутор, достаточно воспользоваться нашим ресурсом. Все новые фильмы, игры, сериалы, книги и музыка за 2013 и 2014 годы через торрент бесплатно. Скачивайте фильмы в хорошем качестве, игры для пк, xbox, playstation без регистрации. У нас вы найдете новые Зарубежные сериалы и Русские сериалы 2013, 2014, 2015 годов. Оставайтесь с нами, качайте любимые фильмы, игры, сериалы, книги и музыку.