img image001 image001 image001 image001 image001 image001 image001 image001 image001 image001 image001 image001 image001 image001 image001

Planets Sun Sun Sun
Статистика раздачи
Автор: Снежана | Размер: 874.61 МБ | Добавлен: 27 июл 2013
Раздают: 163    Качают: 6
Скачать торрент
Скачать торрент
Описание торрента

СообщениеДобавлено: 27 июл 2013 

#77
Год выпуска: 2011
Выпущено: Россия / Новый ДИСК
Жанр: мультфильм, детский
Продолжительность серии: 5 х ~ 00:11:00
Язык: Русский
Режиссер: Владимир Пономарев
Роли озвучивали: Александр Власов, Алина Рин, Марьяна Спивак, Марк Томпсон
Описание: Куми-Куми — это причудливые острова с красочными ландшафтами, на которых обитают фантастические существа — племена Юми, Шуми и Джуми. Каждое племя считает своих соседей чудаками, поэтому они не ищут контактов друг с другом, хоть и говорят на одном «тарабарском» языке, интуитивно понятном каждому.
Герои сериала — Джуга, Юси и Шумадан — представители разных племён. Несмотря на разные характеры и сложные отношения между их племенами, они очень дружны. В каждой серии кто-то из друзей попадает в переделку, выпутываться из которой приходится всем вместе. Часто ситуация осложняется ещё и тем, что Джуга и Шумадан влюблены в Юси.






Серии: Рыбалка * Мусорная жаба * Солнечная энергия * Облачный край * Легенда

Качество видео: DVDRip [DVD5 R5]
Формат видео: AVI

Видео: 720x400 (16:9), XViD 2000 Кбит/сек 25,000 fps / Бит/(Пиксели*Кадры): 0.278
Аудио: Dolby Digital Audio Russian 192 kbps 2.0 / 48 kHz

Раздача от:
Аба - Я
Аларма - Внимание! Тревога!
Ащщщ - Круто! Хорошо!
Бадуга - Беда, опасность
Байпопо - Волшебство, необыкновенное явление
Би-бу-бип! - Машина, устройство
Бухан - Любовь, праздник
Гадым - Привет! Как дела?
Джемана - Супер! Отлично!
Дрюка - Крутая штуковина, полезная вещь
Кам-кам-кам - Пойдем со мной
Куми-Куми - Друзья
Лака-лака - Нравится! Замечательно!
Няма-няма - Вкуснотища!
Суно - Солнце
Сяма - Спасибо!
Уба - Ты
Углюк - Не понимаю
Хаба-хаба - Много и долго гулять
Хабарра - Воинственный клич: Хватай! Держи! Лови!

Внимание! Раздача ведётся путём добавления новых серий; при каждом добавлении создаётся новый торрент-файл. Чтобы начать докачку новой серии, пользователям необходимо сделать следующее:
(1) остановить скачивание;
(2) удалить старый торрент-файл у себя из клиента (старые серии удалять не надо);
(3) скачать новый торрент-файл и запустить его у себя в клиенте вместо старого, при этом указать клиенту путь в старую папку куда и должно происходить скачивание новых серий.
Ваш клиент при этом должен произвести хеширование (проверку) старой папки (если он не производит проверку сам – помогите ему сделать это), и будет докачивать только те серии которых у вас ещё нет. Старые серии при этом не удаляются, а продолжают раздаваться!
Если вы уже удалили старые серии, то предотвратить повторную закачку старых серий можно, отжав галочку в соответствующих местах при запуске нового торрент-файла. Желательно старые серии не удалять как можно дольше, чтобы релизёр не столько продолжал раздавать старые серии, а смог сконцентрироваться на новых.

General
Complete name : Kumi-Kumi.2011.O.DVDRip_[Youtracker]_dy_avproh1.avi
Format : AVI
Format/Info : Audio Video Interleave
File size : 175 MiB
Duration : 11mn 6s
Overall bit rate : 2 203 Kbps
Writing application : VirtualDubModRus 1.5.10.2 (build 2542/release)
Writing library : VirtualDubMod build 2542/release

Video
ID : 0
Format : MPEG-4 Visual
Format profile : Advanced Simple@L5
Format settings, BVOP : 1
Format settings, QPel : No
Format settings, GMC : No warppoints
Format settings, Matrix : Custom
Codec ID : XVID
Codec ID/Hint : XviD
Duration : 11mn 6s
Bit rate : 2 001 Kbps
Width : 720 pixels
Height : 400 pixels
Display aspect ratio : 16:9
Frame rate : 25.000 fps
Color space : YUV
Chroma subsampling : 4:2:0
Bit depth : 8 bits
Scan type : Progressive
Compression mode : Lossy
Bits/(Pixel*Frame) : 0.278
Stream size : 159 MiB (91%)
Writing library : XviD 65

Audio
ID : 1
Format : AC-3
Format/Info : Audio Coding 3
Mode extension : CM (complete main)
Format settings, Endianness : Big
Codec ID : 2000
Duration : 11mn 5s
Bit rate mode : Constant
Bit rate : 192 Kbps
Channel(s) : 2 channels
Channel positions : Front: L R
Sampling rate : 48.0 KHz
Bit depth : 16 bits
Compression mode : Lossy
Stream size : 15.2 MiB (9%)
Alignment : Split accross interleaves
Interleave, duration : 40 ms (1.00 video frame)
Interleave, preload duration : 500 ms





   Похожие торренты   Торрент   Размер 
В этой теме нет новых непрочитанных сообщений. Куми-Куми [01x01-05 из 08] (2011) DVDRip-AVC от Youtracker

51 | 2

873.31 МБ

В этой теме нет новых непрочитанных сообщений. Куми-Куми [01x01-05 из 52] (2011) DVD5 от Youtracker | Лицензия

41 | 11

3.06 ГБ

В этой теме нет новых непрочитанных сообщений. Куми-Куми [01x01-11 из 52] (2011) WEB-DLRip от New-Team

356 | 42

1.6 ГБ

В этой теме нет новых непрочитанных сообщений. Куми-Куми [01x01-13 из 52] (2011) WEB-DLRip от New-Team

1512 | 151

1.89 ГБ

В этой теме нет новых непрочитанных сообщений. Куми-Куми [01x01-12 из 52] (2011) WEB-DLRip от New-Team

210 | 24

1.75 ГБ

В этой теме нет новых непрочитанных сообщений. Куми-Куми / Qumi-Qumi [01х01-12 из 52] (2011-2013) WEB-DLRip

4149 | 693

1.58 ГБ

В этой теме нет новых непрочитанных сообщений. Вирус атакует / Virus Attack [01x01-52 из 52] (2011) DVDRip от Youtracker | P

6 | 3

10.75 ГБ




Вы не можете начинать темы
Вы не можете отвечать на сообщения
Вы не можете редактировать свои сообщения
Вы не можете удалять свои сообщения
Вы не можете добавлять вложения

Перейти:  
Для Мосгорсуда, Роскомнадзора и рекламодателей: mosgorsud-torrent[собачка]yandex.ru
 Вход
ppkBB3cker v.2 © 2008-2014 @ PPK
[ Time : 2.729s | 16 Queries | GZIP : On ]

Торрент трекер RUTOR.IN, Не можете зайти на rutor.org? Какой новый адрес рутор? Какое зеркало рутор? Не работает rutor.org и зеркала? Тогда наш торрент специально для вас. Rutor.in неофициальное зеркало rutor. В случае если у Вас заблокирован rutor или вдруг Вы не можете на него зайти, то Вы без труда сможете скачать бесплатно и без рекламы последние новинки кино, игр, сериалов и прочего у нас, на Rutor.in. Не нужно использовать прокси, чтобы зайти на рутор, достаточно воспользоваться нашим ресурсом. Все новые фильмы, игры, сериалы, книги и музыка за 2013 и 2014 годы через торрент бесплатно. Скачивайте фильмы в хорошем качестве, игры для пк, xbox, playstation без регистрации. У нас вы найдете новые Зарубежные сериалы и Русские сериалы 2013, 2014, 2015 годов. Оставайтесь с нами, качайте любимые фильмы, игры, сериалы, книги и музыку.
cron