img image001 image001 image001 image001 image001 image001 image001 image001 image001 image001 image001 image001 image001 image001 image001

Planets Sun Sun Sun
Статистика раздачи
Автор: Снежана | Размер: 2.91 ГБ | Добавлен: 27 июл 2013
Раздают: 46    Качают: 1
Скачать торрент
Скачать торрент
Описание торрента

СообщениеДобавлено: 27 июл 2013 

Убить Боба / Killer Bean Forever
(2009)
BDRip 1080p [Hi10P] от FREEISLAND




Жанр: мультфильм, боевик, комедия, криминал, детектив

Режиссер: Джефф Лью

Роли озвучивали:
Вегас Е. Трип, Брайан Сешн, Дэвид Гилметт, Мэттью Тайлер

Описание:
Встречайте КИЛЛЕРа БОБА — самого безжалостного, отчаянного и ослепительного наемного убийцу из всех, когда-либо живших в Бобтауне! С невероятным вооруженным артистизмом и ошеломляющим военным мастерством Киллер Боб атакует убежище бандитов. Главарь банды, Каппучино, испуганный нападением на свое прибежище, жаждет возмездия.

Детектив Кромвелл, уставший от Каппучино, стоит перед тяжелым выбором — задержать Киллер Боба или одобрить его незаконную деятельность. Киллер Бобу не нужны друзья, а вскоре он понимает, что их у него и нет, когда узнает, что агентство, на которое он работает, заказало его убийство.



Официальный сайт

Страна: США
Продолжительность: 1 ч. 25 м. 55 с.
Перевод: Русский многоголосый закадровый [R5]
Оригинальная разбивка на главы: сохранена

Внимание!

Рип в High 10 Profile, в настоящее время не поддерживается большинством аппаратных проигрывателей.
Для корректного воспроизведения может потребоваться обновление ПО.
Владельцам несовместимого железа просьба не беспокоить, на трекере есть альтернативные релизы.

Качество: BDRip 1080p Hi10P (SSIM: 0.9789059)
Исходник: BD-Remux
Контейнер: MKV
Видео кодек: x264 High10@L5.1
Аудио кодек: AC-3
Видео: AVC at 4655 Кбит/сек, 1920 x 1080 (1.778) at 23.976 fps
Аудио: AC-3 at 192 Кбит/сек, 2 каналов, 48,0 КГц
Субтитры: нет


Общее
Уникальный идентификатор : 213719296396485793312670323690714219544 (0xA0C8D6D9E57F32DF82652963E20CC418)
Полное имя : Убить Боба [Killer Bean Forever] (2009) BDRip-Hi10P 1080p by_F.HD.mkv
Формат : Matroska
Версия формата : Version 4 / Version 2
Размер файла : 2,91 Гбайт
Продолжительность : 1 ч. 25 м.
Общий поток : 4847 Кбит/сек
Название фильма : релиз от FREEISLAND.ORG
Дата кодирования : UTC 2013-03-13 13:37:14
Программа кодирования : mkvmerge v6.0.0 ('Coming Up For Air') built on Jan 20 2013 09:52:00
Библиотека кодирования : libebml v1.3.0 + libmatroska v1.4.0

Видео
Идентификатор : 1
Формат : AVC
Формат/Информация : Advanced Video Codec
Профиль формата : High 10@L5.1
Параметр CABAC формата : Да
Параметр ReFrames формата : 16 кадров
Идентификатор кодека : V_MPEG4/ISO/AVC
Продолжительность : 1 ч. 25 м.
Битрейт : 4655 Кбит/сек
Ширина : 1920 пикселей
Высота : 1080 пикселей
Соотношение сторон : 16:9
Частота кадров : 23,976 кадра/сек
Цветовое пространство : YUV
Субдискретизация насыщенности : 4:2:0
Битовая глубина : 10 бит
Тип развёртки : Прогрессивная
Бит/(Пиксели*Кадры) : 0.094
Размер потока : 2,74 Гбайт (94%)
Библиотека кодирования : x264 core 129 r2245+704+35 dbbd7a1 tMod [10-bit@all X86_64]
Настройки программы : cabac=1 / ref=16 / deblock=1:1:1 / analyse=0x3:0x133 / me=umh / subme=11 / psy=1 / fade_compensate=0.00 / psy_rd=1.00:0.10 / mixed_ref=1 / me_range=64 / chroma_me=1 / trellis=2 / 8x8dct=1 / cqm=0 / deadzone=21,11 / fast_pskip=0 / chroma_qp_offset=-3 / threads=12 / lookahead_threads=2 / sliced_threads=0 / nr=0 / decimate=1 / interlaced=0 / bluray_compat=0 / constrained_intra=0 / fgo=0 / bframes=9 / b_pyramid=2 / b_adapt=2 / b_bias=0 / direct=3 / weightb=1 / open_gop=0 / weightp=2 / keyint=270 / keyint_min=20 / scenecut=40 / intra_refresh=0 / rc_lookahead=0 / rc=2pass / mbtree=0 / bitrate=4655 / ratetol=1.0 / qcomp=1.00 / qpmin=0 / qpmax=48 / qpstep=4 / cplxblur=20.0 / qblur=0.5 / vbv_maxrate=240000 / vbv_bufsize=240000 / nal_hrd=none / ip_ratio=1.40 / pb_ratio=1.30 / aq=4:0.75
Default : Да
Forced : Нет
Основные цвета : BT.709-5, BT.1361, IEC 61966-2-4, SMPTE RP177
Характеристики трансфера : BT.709-5, BT.1361
Коэффициенты матрицы : BT.709-5, BT.1361, IEC 61966-2-4 709, SMPTE RP177

Аудио
Идентификатор : 2
Формат : AC-3
Формат/Информация : Audio Coding 3
Расширение режима : CM (complete main)
Идентификатор кодека : A_AC3
Продолжительность : 1 ч. 25 м.
Вид битрейта : Постоянный
Битрейт : 192 Кбит/сек
Каналы : 2 канала
Расположение каналов : Front: L R
Частота : 48,0 КГц
Битовая глубина : 16 бит
Метод сжатия : С потерями
Задержка видео : 13 мс.
Размер потока : 118 Мбайт (4%)
Заголовок : MVO | R5
Язык : Russian
Default : Да
Forced : Нет

Меню
00:00:00.000 : :01
00:05:58.660 : :02
00:13:06.213 : :03
00:24:05.247 : :04
00:31:38.283 : :05
00:38:27.065 : :06
00:44:09.492 : :07
00:52:39.251 : :08
01:01:48.800 : :09
01:10:16.890 : :10
01:17:07.343 : :11
01:23:55.751 : :12











СЭМПЛ

Релиз от:

Если у вас возникают вопросы типа:
-почему у меня есть звук и отсутствует изображение?
-почему у меня рассыпается картинка?
-почему у меня картинка фонит синевой или зеленью?
-зачем и кому всё это нужно?
и тому подобные, читаем FAQ.
ссылка на FAQ запрещена правилами.

По этому, гуглим на тему спойлера (Что такое 10-ти битное видео (High 10 Profile - Hi10P), и как его смотреть?).



   Похожие торренты   Торрент   Размер 
В этой теме нет новых непрочитанных сообщений. Убить Боба / Killer Bean Forever (2009) BDRip

169 | 2

2.19 ГБ

В этой теме нет новых непрочитанных сообщений. Убить Боба / Killer Bean Forever (2009) HDRip

9 | 6

1.37 ГБ

В этой теме нет новых непрочитанных сообщений. Убить Боба / Killer Bean Forever (2009) DVDRip by GENADIY

1 | 2

700.41 МБ

В этой теме нет новых непрочитанных сообщений. От винта (2012) BDRip 1080p [Hi10P] от FREEISLAND

18 | 2

2.18 ГБ

В этой теме нет новых непрочитанных сообщений. Остров (2006) BDRip 1080p [Hi10P] от FREEISLAND

85 | 4

4.37 ГБ

В этой теме нет новых непрочитанных сообщений. Неудержимые 2 / The Expendables 2 (2012) BDRip 1080p [Hi10P] от FREEISLAND

13 | 7

4.37 ГБ

В этой теме нет новых непрочитанных сообщений. Тарзан / Tarzan (1999) BDRip 1080p [Hi10P] от FREEISLAND

19 | 4

2.18 ГБ




Вы не можете начинать темы
Вы не можете отвечать на сообщения
Вы не можете редактировать свои сообщения
Вы не можете удалять свои сообщения
Вы не можете добавлять вложения

Перейти:  
Для Мосгорсуда, Роскомнадзора и рекламодателей: mosgorsud-torrent[собачка]yandex.ru
 Вход
ppkBB3cker v.2 © 2008-2014 @ PPK
[ Time : 0.054s | 15 Queries | GZIP : Off ]

Торрент трекер RUTOR.IN, Не можете зайти на rutor.org? Какой новый адрес рутор? Какое зеркало рутор? Не работает rutor.org и зеркала? Тогда наш торрент специально для вас. Rutor.in неофициальное зеркало rutor. В случае если у Вас заблокирован rutor или вдруг Вы не можете на него зайти, то Вы без труда сможете скачать бесплатно и без рекламы последние новинки кино, игр, сериалов и прочего у нас, на Rutor.in. Не нужно использовать прокси, чтобы зайти на рутор, достаточно воспользоваться нашим ресурсом. Все новые фильмы, игры, сериалы, книги и музыка за 2013 и 2014 годы через торрент бесплатно. Скачивайте фильмы в хорошем качестве, игры для пк, xbox, playstation без регистрации. У нас вы найдете новые Зарубежные сериалы и Русские сериалы 2013, 2014, 2015 годов. Оставайтесь с нами, качайте любимые фильмы, игры, сериалы, книги и музыку.