img image001 image001 image001 image001 image001 image001 image001 image001 image001 image001 image001 image001 image001 image001 image001

Planets Sun Sun Sun
Статистика раздачи
Автор: Снежана | Размер: 6.72 ГБ | Добавлен: 27 июл 2013
Раздают: 29    Качают: 2
Скачать торрент
Скачать торрент
Описание торрента

СообщениеДобавлено: 27 июл 2013 

#77


Снежная королева в 3Д
«Главное новогоднее приключение»


#77

Страна: Россия
Студия: Инлэй Фильм, Wizart Animation
Жанр: мультфильм, фэнтези, приключения, семейный
Год выпуска: 2012
Продолжительность: 01:16:05

Аудиодорожка: Профессиональный (оригинальный) [Лицензия, BD RUS]
Русские субтитры: нет
Режиссер: Максим Свешников, Владлен Барбэ
Роли озвучивали: Иван Охлобыстин, Нюша Шурочкина, Анна Ардова, Рамиля Искандер, Дмитрий Нагиев, Лиза Арзамасова, Галина Тюнина, Юрий Стоянов, Людмила Артемьева, Михаил Тихонов


В стремлении сотворить Новый мир — холодный и практичный, где четкость линий призвана заменить эмоции, а северный ветер должен остудить людские души, Снежная Королева избавляется от всех представителей творческих профессий. Маленькой и смелой Герде, отправившейся в опасное путешествие, чтобы спасти своего брата Кая, предстоит столкнуться с этим холодным миром Снежной Королевы. Преодолевая все сложности и преграды на пути к своей цели, Герда не только обретает семью, но и веру в себя, находит поддержку новых друзей.

Качество: BDRip 1080p
Контейнер: MKV
Формат 3D: Half OverUnder / Вертикальная анаморфная стереопара
Порядок ракурсов: левый ракурс первый
Поддержка автоматического запуска 3D на вашем TV (frame paking): да
Видео кодек: x264
Аудио кодек: AC3
Видео: AVC / High@L4.1 / 2 pass / 23,976 fps / 1920x1080p / 12,0 Mbps / 0.241
Аудио: AC3 / 5.1 ch / 640 kbps / Русский original, BD RUS
Субтитры: нет
Дополнительно: Сохранены оригинальные чаптеры как на Blu-ray
Рип от: Killbrain


Раздача от:










x264 [info]: frame I:1010 Avg QP:14.18 size:392070
x264 [info]: frame P:27897 Avg QP:16.72 size:120455
x264 [info]: frame B:80558 Avg QP:18.86 size: 38331

Общее
Уникальный идентификатор : 244783600994307780207111341290603544186 (0xB8279B51049F6C819AD51BC7E79DFE7A)
Полное имя : F:Скачка торрентSnow.queen.3D.2012.BDRip1080p.halfOU( Killbrain).mkv
Формат : Matroska
Версия формата : Version 4 / Version 2
Размер файла : 6,72 Гбайт
Продолжительность : 1 ч. 16 м.
Общий поток : 12,6 Мбит/сек
Название фильма : Snow queen 3D (2012) by Killbrain
Дата кодирования : UTC 2013-03-14 13:59:23
Программа кодирования : mkvmerge v6.1.0 ('Old Devil') built on Mar 2 2013 14:32:37
Библиотека кодирования : libebml v1.3.0 + libmatroska v1.4.0

Видео
Идентификатор : 1
Формат : AVC
Формат/Информация : Advanced Video Codec
Профиль формата : High@L4.1
Параметр CABAC формата : Да
Параметр ReFrames формата : 4 кадра
Идентификатор кодека : V_MPEG4/ISO/AVC
Продолжительность : 1 ч. 16 м.
Битрейт : 12,0 Мбит/сек
Ширина : 1920 пикселей
Высота : 1080 пикселей
Соотношение сторон : 16:9
Режим частоты кадров : Постоянный
Частота кадров : 23,976 кадра/сек
Цветовое пространство : YUV
Субдискретизация насыщенности : 4:2:0
Битовая глубина : 8 бит
Тип развёртки : Прогрессивная
Бит/(Пиксели*Кадры) : 0.241
Размер потока : 6,24 Гбайт (93%)
Заголовок : Snow queen 3D (2012)
Библиотека кодирования : x264 core 128 r2216 198a7ea
Настройки программы : cabac=1 / ref=4 / deblock=1:-1:-1 / analyse=0x3:0x113 / me=umh / subme=9 / psy=1 / psy_rd=1.00:0.40 / mixed_ref=1 / me_range=16 / chroma_me=1 / trellis=2 / 8x8dct=1 / cqm=0 / deadzone=21,11 / fast_pskip=1 / chroma_qp_offset=-4 / threads=3 / lookahead_threads=1 / sliced_threads=0 / nr=0 / decimate=0 / interlaced=0 / bluray_compat=0 / constrained_intra=0 / bframes=6 / b_pyramid=2 / b_adapt=2 / b_bias=0 / direct=3 / weightb=1 / open_gop=0 / weightp=2 / keyint=240 / keyint_min=23 / scenecut=40 / intra_refresh=0 / rc_lookahead=60 / rc=2pass / mbtree=0 / bitrate=12000 / ratetol=1.0 / qcomp=0.65 / qpmin=0 / qpmax=69 / qpstep=4 / cplxblur=20.0 / qblur=0.5 / vbv_maxrate=40000 / vbv_bufsize=40000 / nal_hrd=none / frame-packing=4 / ip_ratio=1.40 / pb_ratio=1.30 / aq=1:0.70
Язык : Russian
Default : Да
Forced : Нет

Аудио
Идентификатор : 2
Формат : AC-3
Формат/Информация : Audio Coding 3
Расширение режима : CM (complete main)
Параметр Endianness формата : Big
Идентификатор кодека : A_AC3
Продолжительность : 1 ч. 16 м.
Вид битрейта : Постоянный
Битрейт : 640 Кбит/сек
Каналы : 6 каналов
Расположение каналов : Front: L C R, Side: L R, LFE
Частота : 48,0 КГц
Битовая глубина : 16 бит
Метод сжатия : С потерями
Размер потока : 348 Мбайт (5%)
Заголовок : AC3 / 5.1 ch / 640 kbps / Русский оригинальный, BD RUS
Язык : Russian
Default : Да
Forced : Нет

Меню
00:00:00.000 : :Chapter 01
00:09:06.504 : :Chapter 02
00:22:52.162 : :Chapter 03
00:31:48.531 : :Chapter 04
00:41:38.996 : :Chapter 05
00:52:20.637 : :Chapter 06
01:00:27.999 : :Chapter 07
01:11:20.526 : :Chapter 08








   Похожие торренты   Торрент   Размер 
В этой теме нет новых непрочитанных сообщений. Снежная королева (2012) BDRip 1080p от Youtracker

94 | 13

6.17 ГБ

В этой теме нет новых непрочитанных сообщений. Снежная королева (2012) DVD9 R5 от Youtracker | 2D+3D | 3D-video

5 | 4

7.29 ГБ

В этой теме нет новых непрочитанных сообщений. Снежная королева (2012) BDRip 1080p | 3D-Video

60 | 4

7.09 ГБ

В этой теме нет новых непрочитанных сообщений. Снежная королева (2012) Blu-ray 1080p от HDCLUB и Youtracker

12 | 9

17.16 ГБ

В этой теме нет новых непрочитанных сообщений. Снежная королева (2012) BDRip от Youtracker

88 | 5

1.46 ГБ

В этой теме нет новых непрочитанных сообщений. Снежная королева (2012) BDRip от Youtracker

39 | 5

744.61 МБ

В этой теме нет новых непрочитанных сообщений. Снежная королева (2012) BDRip-AVC от Youtracker

30 | 3

1.46 ГБ




Вы не можете начинать темы
Вы не можете отвечать на сообщения
Вы не можете редактировать свои сообщения
Вы не можете удалять свои сообщения
Вы не можете добавлять вложения

Перейти:  
Для Мосгорсуда, Роскомнадзора и рекламодателей: mosgorsud-torrent[собачка]yandex.ru
 Вход
ppkBB3cker v.2 © 2008-2014 @ PPK
[ Time : 0.055s | 15 Queries | GZIP : Off ]

Торрент трекер RUTOR.IN, Не можете зайти на rutor.org? Какой новый адрес рутор? Какое зеркало рутор? Не работает rutor.org и зеркала? Тогда наш торрент специально для вас. Rutor.in неофициальное зеркало rutor. В случае если у Вас заблокирован rutor или вдруг Вы не можете на него зайти, то Вы без труда сможете скачать бесплатно и без рекламы последние новинки кино, игр, сериалов и прочего у нас, на Rutor.in. Не нужно использовать прокси, чтобы зайти на рутор, достаточно воспользоваться нашим ресурсом. Все новые фильмы, игры, сериалы, книги и музыка за 2013 и 2014 годы через торрент бесплатно. Скачивайте фильмы в хорошем качестве, игры для пк, xbox, playstation без регистрации. У нас вы найдете новые Зарубежные сериалы и Русские сериалы 2013, 2014, 2015 годов. Оставайтесь с нами, качайте любимые фильмы, игры, сериалы, книги и музыку.
cron