img image001 image001 image001 image001 image001 image001 image001 image001 image001 image001 image001 image001 image001 image001 image001

Planets Sun Sun Sun
Статистика раздачи
Автор: Снежана | Размер: 1.93 ГБ | Добавлен: 27 июл 2013
Раздают: 167    Качают: 10
Скачать торрент
Скачать торрент
Описание торрента

СообщениеДобавлено: 27 июл 2013 

#77
Год выпуска: 2012
Выпущено: США, Ирландия / «Уолт Дисней Компани СНГ»
Жанр: мультфильм, детский
Продолжительность: 5 х ~ 00:23:05

Перевод: Профессиональный (дублированный)
Оригинальная аудиодорожка: английский
Субтитры: русский, английский, английский (SDH)

Режиссер: Нортон Вирген / Norton Virgien, Мария Эстрада / Maria Estrada

Роли озвучивали: Киара Мухаммад, Джейден Беттс, Лара Джилл Миллер, Робби Рист, Лоретта Дивайн, Джесс Харнелл, Кимберли Брукс, Кайли Андерсон, Гари Энтони Уильямс, Кэйтлин Кармайкл...

Роли дублировали: Анастасия Лебедина, Фёдор Дахненко, Лиза Мартиросова, Андрей Бархударов, Ольга Голованова...

Описание: Хорошим врачом может быть даже ребенок. Главное — желание помочь близким. В этом уверена 6-летняя героиня мультсериала Дотти, зовущая себя Доктор Плюшева, которая просто обожает свои игрушки. Стоит ей только поднести к ним стетоскоп, и они оживают!
Теперь плюшевых зверей можно спросить о самочувствии, измерить им температуру и выписать рецепты, как настоящим пациентам. Вместе с помощниками — драконом Стаффи, овечкой Лэмми и бегемотиком Хэлли — Дотти каждый день учится соблюдать гигиену, правильно питаться и укреплять здоровье.






Качество видео: DVDRip [DVD9 R5]
Формат видео: AVI

Видео: 720x400 (16:9), XViD 2000 Кбит/сек 25,000 fps / Бит/(Пиксели*Кадры): 0.278
Аудио 1: Dolby Digital Audio Russian 192 kbps 2.0 / 48 kHz
Аудио 2: Dolby Digital Audio English 192 kbps 2.0 / 48 kHz
Формат субтитров: SoftSub (srt)

Примечание: Абсолютно непонятно, как серии, представленные здесь ложатся по сезонам. Кинопоиск и IMDB - каждый поет в свою дуду. Амазон от них не отстал. Поэтому внизу под спойлером я постарался наиболее точно (по видео и аудио) обозначить название приведенных здесь серий. Производитель диска - «Уолт Дисней Компани СНГ» пожелал в первый диск положить именно эти серии и написал при этом на коробке: "Порадуйте своего малыша пятью увлекательными эпизодами...", даже не назвав их на обложке издания.
Раздача от:
01. Пожарная машина к службе готова! / Так держать! (Engine Nine, Feelin' Fine)
02. Поймать за руку / Пищать или не пищать (Caught Blue-Handed)
03. Бен-Анновый Сплит / Просто клешне-лепно (Ben/Anna Split!)
04. Рана, о которой услышал весь мир / Время раций (The Rip Heard Around the World)
05. Рыцарь и темнота / Хэлли теряет слух (The Dark Knight)

Внимание! Раздача ведётся путём добавления новых серий; при каждом добавлении создаётся новый торрент-файл. Чтобы начать докачку новой серии, пользователям необходимо сделать следующее:
(1) остановить скачивание;
(2) удалить старый торрент-файл у себя из клиента (старые серии удалять не надо);
(3) скачать новый торрент-файл и запустить его у себя в клиенте вместо старого, при этом указать клиенту путь в старую папку куда и должно происходить скачивание новых серий.
Ваш клиент при этом должен произвести хеширование (проверку) старой папки (если он не производит проверку сам – помогите ему сделать это), и будет докачивать только те серии которых у вас ещё нет. Старые серии при этом не удаляются, а продолжают раздаваться!
Если вы уже удалили старые серии, то предотвратить повторную закачку старых серий можно, отжав галочку в соответствующих местах при запуске нового торрент-файла. Желательно старые серии не удалять как можно дольше, чтобы релизёр не столько продолжал раздавать старые серии, а смог сконцентрироваться на новых.

General
Complete name : Doktor.Plyusheva.2011.D.DVDRip_[Youtracker]_by_avproh\01.avi
Format : AVI
Format/Info : Audio Video Interleave
File size : 396 MiB
Duration : 23mn 5s
Overall bit rate : 2 398 Kbps
Writing application : VirtualDubModRus 1.5.10.2 (build 2542/release)
Writing library : VirtualDubMod build 2542/release

Video
ID : 0
Format : MPEG-4 Visual
Format profile : Advanced Simple@L5
Format settings, BVOP : 1
Format settings, QPel : No
Format settings, GMC : No warppoints
Format settings, Matrix : Custom
Codec ID : XVID
Codec ID/Hint : XviD
Duration : 23mn 5s
Bit rate : 1 999 Kbps
Width : 720 pixels
Height : 400 pixels
Display aspect ratio : 16:9
Frame rate : 25.000 fps
Color space : YUV
Chroma subsampling : 4:2:0
Bit depth : 8 bits
Scan type : Progressive
Compression mode : Lossy
Bits/(Pixel*Frame) : 0.278
Stream size : 330 MiB (83%)
Writing library : XviD 65

Audio #1
ID : 1
Format : AC-3
Format/Info : Audio Coding 3
Format profile : Dolby Digital
Mode extension : CM (complete main)
Format settings, Endianness : Big
Codec ID : 2000
Duration : 23mn 5s
Bit rate mode : Constant
Bit rate : 192 Kbps
Channel(s) : 2 channels
Channel positions : Front: L R
Sampling rate : 48.0 KHz
Bit depth : 16 bits
Compression mode : Lossy
Stream size : 31.7 MiB (8%)
Alignment : Split accross interleaves
Interleave, duration : 40 ms (1.00 video frame)
Interleave, preload duration : 500 ms

Audio #2
ID : 2
Format : AC-3
Format/Info : Audio Coding 3
Format profile : Dolby Digital
Mode extension : CM (complete main)
Format settings, Endianness : Big
Codec ID : 2000
Duration : 23mn 5s
Bit rate mode : Constant
Bit rate : 192 Kbps
Channel(s) : 2 channels
Channel positions : Front: L R
Sampling rate : 48.0 KHz
Bit depth : 16 bits
Compression mode : Lossy
Stream size : 31.7 MiB (8%)
Alignment : Split accross interleaves
Interleave, duration : 40 ms (1.00 video frame)
Interleave, preload duration : 500 ms





   Похожие торренты   Торрент   Размер 
В этой теме нет новых непрочитанных сообщений. Доктор Плюшева / Doc McStuffins [01x01-05 из ?] (2011 - 2013) DVDRip-AVC от Youtracker | D | лицензия

17 | 4

1.93 ГБ

В этой теме нет новых непрочитанных сообщений. Доктор Плюшева / Doc McStuffins [01x01-05 из ?] (2011 - 2013) DVD9 R5 от Youtracker | D

0 | 1

6.35 ГБ

В этой теме нет новых непрочитанных сообщений. Доктор Плюшева / Doc McStuffins [S01] (2011 - 2013) SATRip от Youtracker | D

3 | 2

6.56 ГБ

В этой теме нет новых непрочитанных сообщений. Доктор Плюшева / Doc McStuffins [S01] (2011 - 2013) WEB-DLRip от Youtracker | D

11 | 4

6.59 ГБ

В этой теме нет новых непрочитанных сообщений. Доктор Плюшева / Doc McStuffins [01-02x01-15] (2012-2013) 3xDVD9 от New-Team | D | Лицензия

11 | 27

19.37 ГБ

В этой теме нет новых непрочитанных сообщений. Доктор Плюшева / Doc McStuffins [01-02x01-20] (2012-2013) 4xDVD9 от New-Team | D | Лицензия

73 | 12

24.96 ГБ

В этой теме нет новых непрочитанных сообщений. Доктор Плюшева / Doc McStuffins [S01] (2011) WEBDLRip-AVC | D

213 | 54

6.73 ГБ




Вы не можете начинать темы
Вы не можете отвечать на сообщения
Вы не можете редактировать свои сообщения
Вы не можете удалять свои сообщения
Вы не можете добавлять вложения

Перейти:  
Для Мосгорсуда, Роскомнадзора и рекламодателей: mosgorsud-torrent[собачка]yandex.ru
 Вход
ppkBB3cker v.2 © 2008-2014 @ PPK
[ Time : 0.039s | 15 Queries | GZIP : Off ]

Торрент трекер RUTOR.IN, Не можете зайти на rutor.org? Какой новый адрес рутор? Какое зеркало рутор? Не работает rutor.org и зеркала? Тогда наш торрент специально для вас. Rutor.in неофициальное зеркало rutor. В случае если у Вас заблокирован rutor или вдруг Вы не можете на него зайти, то Вы без труда сможете скачать бесплатно и без рекламы последние новинки кино, игр, сериалов и прочего у нас, на Rutor.in. Не нужно использовать прокси, чтобы зайти на рутор, достаточно воспользоваться нашим ресурсом. Все новые фильмы, игры, сериалы, книги и музыка за 2013 и 2014 годы через торрент бесплатно. Скачивайте фильмы в хорошем качестве, игры для пк, xbox, playstation без регистрации. У нас вы найдете новые Зарубежные сериалы и Русские сериалы 2013, 2014, 2015 годов. Оставайтесь с нами, качайте любимые фильмы, игры, сериалы, книги и музыку.
cron