img image001 image001 image001 image001 image001 image001 image001 image001 image001 image001 image001 image001 image001 image001 image001

Planets Sun Sun Sun
Статистика раздачи
Автор: Снежана | Размер: 8.75 ГБ | Добавлен: 27 июл 2013
Раздают: 34    Качают: 4
Скачать торрент
Скачать торрент
Описание торрента

СообщениеДобавлено: 27 июл 2013 

Питер Пэн / Peter Pan [Дилогия / Dilogy ]




«It will live in your heart forever!»




#77
Год выпуска: 1953
Страна: США
Жанр: мультфильм, фэнтези, приключения, семейный, музыка, ...
Продолжительность: 01:16:46
Перевод: Профессиональный (дублированный)
Субтитры: Russian (UTF-8), Russian (UTF-8), Russian (UTF-8), Ukrainian (UTF-8)

Режиссер: Клайд Джероними, Уилфред Джексон, Хэмильтон Ласки, ...
Сценарий: Дж. М. Барри, Тед Сирс, Эрдман Пеннер, ...
Продюсер: Уолт Дисней
Композитор: Оливер Уоллес
Монтаж: Дональд Холлидэй

В ролях: Бобби Дрисколл / Bobby Driscoll (Peter Pan, озвучка), Катрин Бомонт / Kathryn Beaumont (Wendy Darling, озвучка), Ганс Конрид / Hans Conried (Captain Hook / Mr. Darling, озвучка), Билл Томпсон / Bill Thompson (Mr. Smee / Other Pirates, озвучка), Хэзер Эйнджел / Heather Angel (Mrs. Darling, озвучка), Пол Коллинз / Paul Collins (John Darling, озвучка), Томми Ласки / Tommy Luske (Michael Darling, озвучка), Кэнди Кандидо / Candy Candido (Indian Chief, озвучка)


Описание: Уолт Дисней зовет нас с собой в волшебную страну Неверленд, где живет удивительный мальчик, который умеет летать и отказывается взрослеть. Это веселый выдумщик, храбрец и проказник Питер Пэн!Однажды в поисках собственной тени Питер попадает в Лондон нашего мира и становится другом маленькой Венди и ее братьев Майкла и Джона, и, конечно же, он берет своих ночных друзей с собой в Неверленд, навстречу потрясающим приключениям.Героям предстоит встретиться с феей Тинкербелл и дружной ватагой Питера Пэна, спасти индейскую принцессу Тигровую Лилию из лап пиратов и сразиться с их демоническим главарем капитаном Крюком!..


Бюджет: $4 000 000
Сборы в США: $87 404 651
Зрители: США 45.6 млн , Франция 7.26 млн , Испания 3.11 млн
Премьера (мир): 5 февраля 1953, ...
Релиз на DVD: 20 ноября 2008, «Мьюзик-Трейд», ...
Релиз на Blu-Ray: 4 декабря 2012, «Уолт Дисней Компани СНГ», ...
Рейтинг MPAA: Нет возрастных ограничений



Качество: BDRip
Формат: MKV
Видео кодек: AVC
Аудио кодеk: AC3
Видео: 1440x1080 (4:3), 23.976 fps, AVC, 6 874 Kbps
Аудио #1: AC3, 640 Kbps, 48.0 KHz, 6 ch (Rus)
Аудио #2: AC3, 640 Kbps, 48.0 KHz, 6 ch (Engl)











[Information-X264]

-[NoImage] x264 [info]: frame I:1178 Avg QP: 9.57 size:245749
-[NoImage] x264 [info]: frame P:34597 Avg QP:13.13 size: 65052
-[NoImage] x264 [info]: frame B:74670 Avg QP:15.62 size: 19006

General
Complete name : Peter.Pan.1953.BDRip.1080p.mkv
Format : Matroska
File size : 4.38 GiB
Duration : 1h 16mn
Overall bit rate : 8 158 Kbps
Encoded date : UTC 2013-03-15 01:40:17
Writing application : mkvmerge v5.3.0 ('I could have danced') built on Feb 9 2012 10:38:07
Writing library : libebml v1.2.3 + libmatroska v1.3.0

Video
ID : 1
Format : AVC
Format/Info : Advanced Video Codec
Format profile : High@L4.1
Format settings, CABAC : Yes
Format settings, ReFrames : 5 frames
Muxing mode : Container profile=Unknown@4.1
Codec ID : V_MPEG4/ISO/AVC
Duration : 1h 16mn
Bit rate : 6 874 Kbps
Width : 1 440 pixels
Height : 1 080 pixels
Display aspect ratio : 4:3
Frame rate : 23.976 fps
Color space : YUV
Chroma subsampling : 4:2:0
Bit depth : 8 bits
Scan type : Progressive
Bits/(Pixel*Frame) : 0.184
Stream size : 3.60 GiB (82%)
Writing library : x264 core 129 r2230 1cffe9f
Encoding settings : cabac=1 / ref=5 / deblock=1:0:0 / analyse=0x3:0x133 / me=umh / subme=10 / psy=1 / psy_rd=1.00:0.00 / mixed_ref=1 / me_range=32 / chroma_me=1 / trellis=2 / 8x8dct=1 / cqm=0 / deadzone=21,11 / fast_pskip=0 / chroma_qp_offset=-2 / threads=6 / lookahead_threads=1 / sliced_threads=0 / nr=0 / decimate=1 / interlaced=0 / bluray_compat=0 / constrained_intra=0 / bframes=8 / b_pyramid=2 / b_adapt=2 / b_bias=0 / direct=3 / weightb=1 / open_gop=0 / weightp=2 / keyint=240 / keyint_min=23 / scenecut=40 / intra_refresh=0 / rc=2pass / mbtree=0 / bitrate=6874 / ratetol=2.0 / qcomp=1.00 / qpmin=0 / qpmax=51 / qpstep=4 / cplxblur=20.0 / qblur=0.5 / ip_ratio=1.40 / pb_ratio=1.30 / aq=1:1.00
Color primaries : BT.709-5, BT.1361, IEC 61966-2-4, SMPTE RP177
Transfer characteristics : BT.709-5, BT.1361
Matrix coefficients : BT.709-5, BT.1361, IEC 61966-2-4 709, SMPTE RP177

Audio #1
ID : 2
Format : AC-3
Format/Info : Audio Coding 3
Mode extension : CM (complete main)
Codec ID : A_AC3
Duration : 1h 16mn
Bit rate mode : Constant
Bit rate : 640 Kbps
Channel(s) : 6 channels
Channel positions : Front: L C R, Side: L R, LFE
Sampling rate : 48.0 KHz
Bit depth : 16 bits
Stream size : 351 MiB (8%)
Title : дубляж BD CEE
Language : Russian

Audio #2
ID : 3
Format : AC-3
Format/Info : Audio Coding 3
Mode extension : CM (complete main)
Codec ID : A_AC3
Duration : 1h 16mn
Bit rate mode : Constant
Bit rate : 640 Kbps
Channel(s) : 6 channels
Channel positions : Front: L C R, Side: L R, LFE
Sampling rate : 48.0 KHz
Bit depth : 16 bits
Stream size : 351 MiB (8%)
Title : original BD CEE

Text #1
ID : 4
Format : UTF-8
Codec ID : S_TEXT/UTF8
Codec ID/Info : UTF-8 Plain Text
Title : Русские форсированные
Language : Russian

Text #2
ID : 5
Format : UTF-8
Codec ID : S_TEXT/UTF8
Codec ID/Info : UTF-8 Plain Text
Title : Русские на песни
Language : Russian

Text #3
ID : 6
Format : UTF-8
Codec ID : S_TEXT/UTF8
Codec ID/Info : UTF-8 Plain Text
Title : Русские полные
Language : Russian

Text #4
ID : 7
Format : UTF-8
Codec ID : S_TEXT/UTF8
Codec ID/Info : UTF-8 Plain Text
Title : Украинские полные
Language : Ukrainian

Menu
00:00:00.000 : en:00:00:00.000
00:01:49.526 : en:00:01:49.526
00:03:46.351 : en:00:03:46.351
00:07:40.877 : en:00:07:40.877
00:10:20.453 : en:00:10:20.453
00:12:22.784 : en:00:12:22.784
00:15:09.700 : en:00:15:09.700
00:16:13.639 : en:00:16:13.639
00:18:06.043 : en:00:18:06.043
00:20:28.602 : en:00:20:28.602
00:25:18.058 : en:00:25:18.058
00:27:38.490 : en:00:27:38.490
00:31:48.824 : en:00:31:48.824
00:33:59.704 : en:00:33:59.704
00:36:31.398 : en:00:36:31.398
00:38:19.672 : en:00:38:19.672
00:42:30.047 : en:00:42:30.047
00:43:46.082 : en:00:43:46.082
00:45:51.540 : en:00:45:51.540
00:46:59.608 : en:00:46:59.608
00:50:08.589 : en:00:50:08.589
00:52:52.628 : en:00:52:52.628
00:56:25.674 : en:00:56:25.674
00:58:28.880 : en:00:58:28.880
01:01:59.299 : en:01:01:59.299
01:04:30.492 : en:01:04:30.492
01:06:21.728 : en:01:06:21.728
01:07:40.431 : en:01:07:40.431
01:10:13.668 : en:01:10:13.668
01:12:47.405 : en:01:12:47.405
01:14:25.211 : en:01:14:25.211



#77

Год выпуска: 2002
Страна: США , Канада , Австралия
Жанр: мультфильм, фэнтези, приключения, семейный, ...
Продолжительность: 01:12:32
Перевод: Профессиональный (дублированный)
Субтитры: Russian (UTF-8), Russian (UTF-8), Ukrainian (UTF-8)

Режиссер: Робин Бадд, Донован Кук
Сценарий: Темпл Мэтьюз, Картер Крокер, Дж. М. Барри
Продюсер: Шерил Эбуд, Кристофер Чейз, Мишель Паппалардо-Робинсон, ...
Композитор: Джон Флэнсберг, Джон Линнел, Джоэл МакНили
Художник: Джон Клебер, Уенделл Люббе
Монтаж: Энтони Ф. Рокко

В ролях: Харриет Оуэн / Harriet Owen (Jane / Young Wendy, озвучка), Блэйн Уивер / Blayne Weaver (Peter Pan, озвучка), Кори Бертон / Corey Burton (Captain Hook, озвучка), Джефф Беннетт / Jeff Bennett (Smee / Pirates, озвучка), Кэт Сауси / Kath Soucie (Wendy Darling, озвучка), Эндрю МакДана / Andrew McDonough (Danny, озвучка), Роджер Рис / Roger Rees (Edward, озвучка), Спенсер Бреслин / Spencer Breslin (Cubby, озвучка)


Описание: Венди выросла, теперь у неё свои собственные дети и каждый вечер она рассказывает им истории про Питера Пэна, мальчика, отказавшегося становиться взрослым. Упрямая 12-летняя дочь Венди, Джейн, не имеет ни малейшего желания слушать всю эту ерунду.Именно поэтому Капитан Крюк использует девочку в качестве заложника в войне против своего главного врага. Питер Пэн, Тинкер Белл и Потерянные Мальчики прибывают к ней на помощь; однако, даже они не могут заставить поверить Джейн в волшебный мир. Если она не верит, то значит она не может летать, а другого пути для возвращения домой нет.Всё усугубляется тем, что без веры Джейн в фей, Тинкер Белл может умереть. Когда фея медленно начинает исчезать, Питер предпринимает всё возможное, чтобы спасти девочку от безжалостного Капитана Крюка и доказать ей, что с верой в волшебство и крепкой дружбой нет ничего невозможного.


Бюджет: $20 000 000
Сборы в США: $48 430 258
Сборы в мире: + $61 432 424 = $109 862 682
Зрители: США 8.3 млн , Франция 1.64 млн , Испания 1.33 млн
Премьера (мир): 10 февраля 2002, ...
Премьера (РФ): 31 октября 2002, «Каскад»
Релиз на Blu-Ray: 4 декабря 2012, «Уолт Дисней Компани СНГ», ...
Рейтинг MPAA: Нет возрастных ограничений



Качество: BDRip
Формат: MKV
Видео кодек: AVC
Аудио кодеk: AC3
Видео: 1832x1080 (1.696:1), 23.976 fps, AVC, 7 350 Kbps
Аудио #1: AC3, 640 Kbps, 48.0 KHz, 6 ch (Rus)
Аудио #2: AC3, 640 Kbps, 48.0 KHz, 6 ch (Engl)











[Information-X264]

-[NoImage] x264 [info]: frame I:789 Avg QP:12.85 size:271275
-[NoImage] x264 [info]: frame P:28672 Avg QP:15.32 size: 80854
-[NoImage] x264 [info]: frame B:74890 Avg QP:17.13 size: 19577

General
Complete name : Peter.Pan.Return.to.Never.Land.2002.BDRip.1080p.mkv
Format : Matroska
File size : 4.37 GiB
Duration : 1h 12mn
Overall bit rate : 8 632 Kbps
Encoded date : UTC 2013-03-15 08:28:16
Writing application : mkvmerge v5.3.0 ('I could have danced') built on Feb 9 2012 10:38:07
Writing library : libebml v1.2.3 + libmatroska v1.3.0

Video
ID : 1
Format : AVC
Format/Info : Advanced Video Codec
Format profile : High@L4.1
Format settings, CABAC : Yes
Format settings, ReFrames : 4 frames
Muxing mode : Container profile=Unknown@4.1
Codec ID : V_MPEG4/ISO/AVC
Duration : 1h 12mn
Bit rate : 7 350 Kbps
Width : 1 832 pixels
Height : 1 080 pixels
Display aspect ratio : 1.696
Frame rate : 23.976 fps
Color space : YUV
Chroma subsampling : 4:2:0
Bit depth : 8 bits
Scan type : Progressive
Bits/(Pixel*Frame) : 0.155
Stream size : 3.64 GiB (83%)
Writing library : x264 core 129 r2230 1cffe9f
Encoding settings : cabac=1 / ref=4 / deblock=1:0:0 / analyse=0x3:0x133 / me=umh / subme=10 / psy=1 / psy_rd=1.00:0.00 / mixed_ref=1 / me_range=32 / chroma_me=1 / trellis=2 / 8x8dct=1 / cqm=0 / deadzone=21,11 / fast_pskip=0 / chroma_qp_offset=-2 / threads=6 / lookahead_threads=1 / sliced_threads=0 / nr=0 / decimate=1 / interlaced=0 / bluray_compat=0 / constrained_intra=0 / bframes=8 / b_pyramid=2 / b_adapt=2 / b_bias=0 / direct=3 / weightb=1 / open_gop=0 / weightp=2 / keyint=240 / keyint_min=23 / scenecut=40 / intra_refresh=0 / rc=2pass / mbtree=0 / bitrate=7350 / ratetol=2.0 / qcomp=1.00 / qpmin=0 / qpmax=51 / qpstep=4 / cplxblur=20.0 / qblur=0.5 / ip_ratio=1.40 / pb_ratio=1.30 / aq=1:1.00
Color primaries : BT.709-5, BT.1361, IEC 61966-2-4, SMPTE RP177
Transfer characteristics : BT.709-5, BT.1361
Matrix coefficients : BT.709-5, BT.1361, IEC 61966-2-4 709, SMPTE RP177

Audio #1
ID : 2
Format : AC-3
Format/Info : Audio Coding 3
Mode extension : CM (complete main)
Codec ID : A_AC3
Duration : 1h 12mn
Bit rate mode : Constant
Bit rate : 640 Kbps
Channel(s) : 6 channels
Channel positions : Front: L C R, Side: L R, LFE
Sampling rate : 48.0 KHz
Bit depth : 16 bits
Stream size : 332 MiB (7%)
Title : дубляж BD CEE
Language : Russian

Audio #2
ID : 3
Format : AC-3
Format/Info : Audio Coding 3
Mode extension : CM (complete main)
Codec ID : A_AC3
Duration : 1h 12mn
Bit rate mode : Constant
Bit rate : 640 Kbps
Channel(s) : 6 channels
Channel positions : Front: L C R, Side: L R, LFE
Sampling rate : 48.0 KHz
Bit depth : 16 bits
Stream size : 332 MiB (7%)
Title : original BD CEE

Text #1
ID : 4
Format : UTF-8
Codec ID : S_TEXT/UTF8
Codec ID/Info : UTF-8 Plain Text
Title : Русские форсированные
Language : Russian

Text #2
ID : 5
Format : UTF-8
Codec ID : S_TEXT/UTF8
Codec ID/Info : UTF-8 Plain Text
Title : Русские полные
Language : Russian

Text #3
ID : 6
Format : UTF-8
Codec ID : S_TEXT/UTF8
Codec ID/Info : UTF-8 Plain Text
Title : Украинские полные
Language : Ukrainian

Menu
00:00:00.000 : en:00:00:00.000
00:03:12.275 : en:00:03:12.275
00:09:41.080 : en:00:09:41.080
00:12:26.329 : en:00:12:26.329
00:14:39.378 : en:00:14:39.378
00:17:47.191 : en:00:17:47.191
00:22:40.317 : en:00:22:40.317
00:23:25.696 : en:00:23:25.696
00:27:40.909 : en:00:27:40.909
00:30:16.898 : en:00:30:16.898
00:33:26.963 : en:00:33:26.963
00:35:45.894 : en:00:35:45.894
00:37:25.452 : en:00:37:25.452
00:39:00.547 : en:00:39:00.547
00:40:17.874 : en:00:40:17.874
00:43:46.374 : en:00:43:46.374
00:44:29.417 : en:00:44:29.417
00:46:53.144 : en:00:46:53.144
00:48:57.143 : en:00:48:57.143
00:50:42.414 : en:00:50:42.414
00:55:59.731 : en:00:55:59.731
00:57:26.693 : en:00:57:26.693
00:59:14.509 : en:00:59:14.509
01:01:24.639 : en:01:01:24.639
01:02:42.008 : en:01:02:42.008
01:04:58.269 : en:01:04:58.269


Релиз от:



   Похожие торренты   Торрент   Размер 
В этой теме нет новых непрочитанных сообщений. Питер Пэн / Питер Пэн 2: Возвращение в Нетландию / Peter Pan / Return to Never Land / Дилогия / Dilogy (1953-2002) BDRip 1080p от Youtracker

53 | 9

10.68 ГБ

В этой теме нет новых непрочитанных сообщений. Питер Пэн / Peter Pan (1953) BDRip 1080p от R.G. HD-Films | 60 fps

86 | 9

6.05 ГБ

В этой теме нет новых непрочитанных сообщений. Питер Пэн / Peter Pan (1953) BDRip | D

202 | 10

745.76 МБ

В этой теме нет новых непрочитанных сообщений. Питер Пэн / Peter Pan (1953) BDRip от HQCLUB

378 | 18

1.45 ГБ

В этой теме нет новых непрочитанных сообщений. Питер Пэн / Peter Pan (1953) BDRip 720p

80 | 4

3.73 ГБ

В этой теме нет новых непрочитанных сообщений. Питер Пэн / Peter Pan (1953) BDRip 720p от Leonardo and Scarabey | Лицензия

336 | 20

1.55 ГБ

В этой теме нет новых непрочитанных сообщений. Питер Пэн / Peter Pan (1953) DVD5

5 | 2

3.68 ГБ




Вы не можете начинать темы
Вы не можете отвечать на сообщения
Вы не можете редактировать свои сообщения
Вы не можете удалять свои сообщения
Вы не можете добавлять вложения

Перейти:  
Для Мосгорсуда, Роскомнадзора и рекламодателей: mosgorsud-torrent[собачка]yandex.ru
 Вход
ppkBB3cker v.2 © 2008-2014 @ PPK
[ Time : 0.045s | 18 Queries | GZIP : Off ]

cron