img image001 image001 image001 image001 image001 image001 image001 image001 image001 image001 image001 image001 image001 image001 image001

Planets Sun Sun Sun
Статистика раздачи
Автор: Снежана | Размер: 4.34 ГБ | Добавлен: 27 июл 2013
Раздают: 44    Качают: 5
Скачать торрент
Скачать торрент
Описание торрента

СообщениеДобавлено: 27 июл 2013 

Коты-аристократы

The AristoCats

«Meet the cats who know where it's at...for fun, music and adventure!»




#77
Год выпуска: 1970
Страна: США
Жанр: мультфильм, комедия, приключения, семейный, музыка, ...
Продолжительность: 01:18:50
Перевод: Профессиональный (дублированный)
Субтитры: Russian (UTF-8), Ukrainian (UTF-8),

Режиссер: Вольфганг Райтерман
Сценарий: Ларри Клеммонс, Вэнс Джерри, Кен Андерсон, ...
Продюсер: Уинстон Хиблер, Вольфганг Райтерман
Композитор: Джордж Брунс
Художник: Кен Андерсон
Монтаж: Том Акоста

В ролях: Фил Харрис / Phil Harris (Thomas O'Malley, озвучка), Ева Габор / Eva Gabor (Duchess, озвучка), Стерлинг Холлоуэй / Sterling Holloway (Roquefort, озвучка), Скэтмэн Крозерс / Scatman Crothers (Scat Cat, озвучка), Дин Кларк / Dean Clark (Berlioz, озвучка), Пол Уинчелл / Paul Winchell (Shun Gon, озвучка), Лиз Инглиш / Liz English (Marie, озвучка), Турль Рейвенскрофт / Thurl Ravenscroft (Billy Bass, озвучка)


Описание: В аристократическом доме в Париже живет мама-кошка с тремя котятами. Хозяйка безумно любит их и по завещанию все должно отойти этим очаровательным животным. Но злой дворецкий хочет, чтобы деньги достались только ему.Он похищает ее любимцев и бросает в деревне. Вернуться домой им помогает восхитительный и очаровательный бродячий кот с его друзьями.


Бюджет: $4 000 000
Сборы в США: $17 452 658
Зрители: Франция 12.5 млн , Испания 3.14 млн
Премьера (мир): 11 декабря 1970, ...
Релиз на DVD: 18 декабря 2008, «Мьюзик-Трейд», ...
Релиз на Blu-Ray: 19 марта 2013, «Уолт Дисней Компани СНГ», ...
Рейтинг MPAA: Нет возрастных ограничений



Качество: BDRip
Формат: MKV
Видео кодек: AVC
Аудио кодеk: AC3
Видео: 1800x1080 (1.667:1), 23.976 fps, AVC, 7 018 Kbps

Аудио #1: AC3, 320 Kbps, 48.0 KHz, 2ch(Дубл)
Аудио #2: AC3, 192 Kbps, 48.0 KHz, 2ch(Живов)
Аудио #3: AC3, 192 Kbps, 48.0 KHz, 2ch(Санаев)
Аудио #4: AC3, 192 Kbps, 48.0 KHz, 2ch(Кашкин)



Оригинал(Engl) AC3, 640 Kbps, 48.0 KHz, 6ch





Information х264[16.03.2013 7:28:41]
-[NoImage] x264 [info]: frame I:1057 Avg QP:13.73 size:229661
-[NoImage] x264 [info]: frame P:34523 Avg QP:16.02 size: 69002
-[NoImage] x264 [info]: frame B:77292 Avg QP:17.29 size: 19504

General
Complete name : Aristocats.1970.BDRip.1080p.mkv
Format : Matroska
File size : 4.34 GiB
Duration : 1h 18mn
Overall bit rate : 7 886 Kbps
Movie name : Коты Аристократы / The Aristocats [1970]
Encoded date : UTC 2013-03-16 06:43:16
Writing application : mkvmerge v5.3.0 ('I could have danced') built on Feb 9 2012 10:38:07
Writing library : libebml v1.2.3 + libmatroska v1.3.0

Video
ID : 1
Format : AVC
Format/Info : Advanced Video Codec
Format profile : High@L4.1
Format settings, CABAC : Yes
Format settings, ReFrames : 4 frames
Format settings, GOP : N=15
Muxing mode : Container profile=Unknown@4.1
Codec ID : V_MPEG4/ISO/AVC
Duration : 1h 18mn
Bit rate : 7 018 Kbps
Width : 1 800 pixels
Height : 1 080 pixels
Display aspect ratio : 1.667
Frame rate : 23.976 fps
Color space : YUV
Chroma subsampling : 4:2:0
Bit depth : 8 bits
Scan type : Progressive
Bits/(Pixel*Frame) : 0.151
Stream size : 3.76 GiB (87%)
Writing library : x264 core 129 r2230 1cffe9f
Encoding settings : cabac=1 / ref=4 / deblock=1:0:0 / analyse=0x3:0x133 / me=umh / subme=10 / psy=1 / psy_rd=1.00:0.00 / mixed_ref=1 / me_range=32 / chroma_me=1 / trellis=2 / 8x8dct=1 / cqm=0 / deadzone=21,11 / fast_pskip=0 / chroma_qp_offset=-2 / threads=6 / lookahead_threads=1 / sliced_threads=0 / nr=0 / decimate=1 / interlaced=0 / bluray_compat=0 / constrained_intra=0 / bframes=8 / b_pyramid=2 / b_adapt=2 / b_bias=0 / direct=3 / weightb=1 / open_gop=0 / weightp=2 / keyint=240 / keyint_min=23 / scenecut=40 / intra_refresh=0 / rc=2pass / mbtree=0 / bitrate=7018 / ratetol=2.0 / qcomp=1.00 / qpmin=0 / qpmax=51 / qpstep=4 / cplxblur=20.0 / qblur=0.5 / ip_ratio=1.40 / pb_ratio=1.30 / aq=1:1.00
Color primaries : BT.709-5, BT.1361, IEC 61966-2-4, SMPTE RP177
Transfer characteristics : BT.709-5, BT.1361
Matrix coefficients : BT.709-5, BT.1361, IEC 61966-2-4 709, SMPTE RP177

Audio #1
ID : 2
Format : AC-3
Format/Info : Audio Coding 3
Format profile : Dolby Digital
Mode extension : CM (complete main)
Codec ID : A_AC3
Duration : 1h 18mn
Bit rate mode : Constant
Bit rate : 320 Kbps
Channel(s) : 2 channels
Channel positions : Front: L R
Sampling rate : 48.0 KHz
Bit depth : 16 bits
Stream size : 180 MiB (4%)
Title : Дублированный
Language : Russian

Audio #2
ID : 3
Format : AC-3
Format/Info : Audio Coding 3
Mode extension : CM (complete main)
Codec ID : A_AC3
Duration : 1h 18mn
Bit rate mode : Constant
Bit rate : 192 Kbps
Channel(s) : 2 channels
Channel positions : Front: L R
Sampling rate : 48.0 KHz
Bit depth : 16 bits
Stream size : 108 MiB (2%)
Title : Юрий Живов
Language : Russian

Audio #3
ID : 4
Format : AC-3
Format/Info : Audio Coding 3
Mode extension : CM (complete main)
Codec ID : A_AC3
Duration : 1h 18mn
Bit rate mode : Constant
Bit rate : 192 Kbps
Channel(s) : 2 channels
Channel positions : Front: L R
Sampling rate : 48.0 KHz
Bit depth : 16 bits
Stream size : 108 MiB (2%)
Title : Павел Санаев
Language : Russian

Audio #4
ID : 5
Format : AC-3
Format/Info : Audio Coding 3
Mode extension : CM (complete main)
Codec ID : A_AC3
Duration : 1h 18mn
Bit rate mode : Constant
Bit rate : 192 Kbps
Channel(s) : 2 channels
Channel positions : Front: L R
Sampling rate : 48.0 KHz
Bit depth : 16 bits
Stream size : 108 MiB (2%)
Title : Александр Кашкин (Первомайский)
Language : Russian

Text #1
ID : 6
Format : UTF-8
Codec ID : S_TEXT/UTF8
Codec ID/Info : UTF-8 Plain Text
Language : Russian

Text #2
ID : 7
Format : UTF-8
Codec ID : S_TEXT/UTF8
Codec ID/Info : UTF-8 Plain Text
Language : Ukrainian

Text #3
ID : 8
Format : UTF-8
Codec ID : S_TEXT/UTF8
Codec ID/Info : UTF-8 Plain Text

Menu
00:00:00.000 : en:Opening Credits/"The Aristocats"
00:03:46.559 : en:Madame's Lawyer Arrives
00:07:14.892 : en:Madame Makes A Will
00:12:15.359 : en:"Scales And Arpeggios"
00:16:50.551 : en:A Cat-napping!
00:21:53.645 : en:A Rude Awakening For Duchess And The Kittens
00:26:13.488 : en:"Thomas O'Malley Cat"
00:32:27.737 : en:O'Malley's Plan
00:35:26.415 : en:Edgar Reveals His Secret To Frou-Frou
00:38:14.125 : en:A Narrow Escape For The Kittens
00:42:14.156 : en:Introductions - To Keep Things Proper
00:48:01.461 : en:Roquefort Attempts To Tail Edgar
00:49:03.565 : en:Edgar Tries To Retrieve His Hat And Umbrella
00:55:36.666 : en:On The Rooftops Of Paris
00:58:08.318 : en:"Ev'rybody Wants To Be A Cat"
01:02:29.287 : en:Settling Down For The Night
01:06:25.731 : en:Home At Last
01:10:05.409 : en:Roquefort Runs For Help
01:12:34.099 : en:Edgar Has Another Evil Plan
01:15:26.730 : en:A New Addition To The Family






Релиз от:



   Похожие торренты   Торрент   Размер 
В этой теме нет новых непрочитанных сообщений. Коты-аристократы / The AristoCats (1970) BDRip 1080p | D, P, A

68 | 4

7.06 ГБ

В этой теме нет новых непрочитанных сообщений. Коты-Аристократы / The AristoCats (1970) HDTV 1080p

16 | 4

14.24 ГБ

В этой теме нет новых непрочитанных сообщений. Коты-аристократы / The AristoCats (1970) BDRemux 1080p | D

34 | 11

17.81 ГБ

В этой теме нет новых непрочитанных сообщений. Коты-аристократы / The AristoCats (1970) BDRip 720p | D, P, A

62 | 12

5.14 ГБ

В этой теме нет новых непрочитанных сообщений. Коты-аристократы / The AristoCats (1970) BDRip от HELLYWOOD

527 | 24

1.45 ГБ

В этой теме нет новых непрочитанных сообщений. Коты-аристократы / The AristoCats (1970) BDRip от HQCLUB

130 | 13

1.45 ГБ

В этой теме нет новых непрочитанных сообщений. Коты - аристократы / The Aristocats (1970) BDRip 720p

88 | 5

3.78 ГБ




Вы не можете начинать темы
Вы не можете отвечать на сообщения
Вы не можете редактировать свои сообщения
Вы не можете удалять свои сообщения
Вы не можете добавлять вложения

Перейти:  
Для Мосгорсуда, Роскомнадзора и рекламодателей: mosgorsud-torrent[собачка]yandex.ru
 Вход
ppkBB3cker v.2 © 2008-2014 @ PPK
[ Time : 1.307s | 16 Queries | GZIP : Off ]

Торрент трекер RUTOR.IN, Не можете зайти на rutor.org? Какой новый адрес рутор? Какое зеркало рутор? Не работает rutor.org и зеркала? Тогда наш торрент специально для вас. Rutor.in неофициальное зеркало rutor. В случае если у Вас заблокирован rutor или вдруг Вы не можете на него зайти, то Вы без труда сможете скачать бесплатно и без рекламы последние новинки кино, игр, сериалов и прочего у нас, на Rutor.in. Не нужно использовать прокси, чтобы зайти на рутор, достаточно воспользоваться нашим ресурсом. Все новые фильмы, игры, сериалы, книги и музыка за 2013 и 2014 годы через торрент бесплатно. Скачивайте фильмы в хорошем качестве, игры для пк, xbox, playstation без регистрации. У нас вы найдете новые Зарубежные сериалы и Русские сериалы 2013, 2014, 2015 годов. Оставайтесь с нами, качайте любимые фильмы, игры, сериалы, книги и музыку.