img image001 image001 image001 image001 image001 image001 image001 image001 image001 image001 image001 image001 image001 image001 image001

Planets Sun Sun Sun
Статистика раздачи
Автор: Снежана | Размер: 4.37 ГБ | Добавлен: 27 июл 2013
Раздают: 2    Качают: 2
Скачать торрент
Скачать торрент
Описание торрента

СообщениеДобавлено: 27 июл 2013 

Веселая коза: Легенды старой Праги

Kozi pribeh




#77
Год выпуска: 2008
Страна: Чехия
Жанр: мультфильм, фэнтези, комедия, семейный, ...
Продолжительность: 01:21:53
Перевод: Профессиональный (многоголосый закадровый)

Режиссер: Jan Tomanek
Сценарий: David Slama, Jan Tomanek
Продюсер: Карл Т. Хирш, Jan Tomanek, Шакед Беренсон, ...
Оператор: Jan Tomanek
Композитор: Дэвид Солар
Художник: Jan Tomanek
Монтаж: Алоис Фисарек, Jan Tomanek

В ролях: Йири Лабус / Jiri Labus (Goat, озвучка), Матей Гадек / Matej Hadek (Jemmy, озвучка), Магулена Бочанова / Mahulena Bocanova (Katy, озвучка), Михал Длоуги / Michal Dlouhý (Matthias, озвучка), Петр Пелцер / Petr Pelzer (Master Hanus, озвучка), Ян Прюсил / Jan Preucil (Portreeve, озвучка), Виктор Прейсс / Viktor Preiss (Alderman, озвучка), Мирослав Таборски / Miroslav Taborský (Priest Ignac, озвучка)


Описание: Эта необыкновенная история произошла в средневековой Праге. История о дружбе крестьянина Джимми и его козы. Вместе они приходят в город и встречают девушку Кети, хорошо знающую законы улицы. Джимми устраивается на работу часовым мастером и влюбляется в Кети, но своенравной козе это совсем не нравится!Это история о спасении пражских астрономических часов, о любви и дружбе, предательстве и трусости. Главные герои попадут в Мистический дом Фауста, им предстоит встретиться с привидениями и дьявольщиной. Необыкновенные приключения друзей никого не оставят равнодушными!


Бюджет: $2 800 000
Зрители: Чехия 305 тыс. , Словакия 13 тыс.
Премьера (мир): 16 октября 2008, ...
Релиз на DVD: 25 марта 2010, «CD Land», ...
Рейтинг MPAA: Детям до 13 лет просмотр не желателен



Качество: BDRip
Формат: MKV
Видео кодек: AVC
Аудио кодеk: AC3
Видео: 1920x816 (2.35:1), 23.976 fps, AVC, 7 068 Kbps
Аудио #1: AC3, 192 Kbps, 48.0 KHz, 2 ch (RUS MVO)
Аудио #2: AC3, 384 Kbps, 48.0 KHz, 6 ch (Czech)





[Information][17.03.2013 04:42:57]
-[NoImage] x264 [info]: frame I:968 Avg QP:13.94 size:184351
-[NoImage] x264 [info]: frame P:29010 Avg QP:16.42 size: 70473
-[NoImage] x264 [info]: frame B:87829 Avg QP:18.83 size: 24062

General
Complete name : Veselaya.koza.2008.BDRip.1080p.mkv
Format : Matroska
File size : 4.37 GiB
Duration : 1h 21mn
Overall bit rate : 7 638 Kbps
Encoded date : UTC 2013-03-17 00:43:00
Writing application : mkvmerge v5.3.0 ('I could have danced') built on Feb 9 2012 10:38:07
Writing library : libebml v1.2.3 + libmatroska v1.3.0

Video
ID : 1
Format : AVC
Format/Info : Advanced Video Codec
Format profile : High@L4.1
Format settings, CABAC : Yes
Format settings, ReFrames : 5 frames
Muxing mode : Container profile=Unknown@4.1
Codec ID : V_MPEG4/ISO/AVC
Duration : 1h 21mn
Bit rate : 7 068 Kbps
Width : 1 920 pixels
Height : 816 pixels
Display aspect ratio : 2.35:1
Frame rate : 23.976 fps
Color space : YUV
Chroma subsampling : 4:2:0
Bit depth : 8 bits
Scan type : Progressive
Bits/(Pixel*Frame) : 0.188
Stream size : 3.95 GiB (90%)
Writing library : x264 core 129 r2230 1cffe9f
Encoding settings : cabac=1 / ref=5 / deblock=1:-1:-1 / analyse=0x3:0x133 / me=umh / subme=11 / psy=1 / psy_rd=1.00:0.00 / mixed_ref=1 / me_range=32 / chroma_me=1 / trellis=2 / 8x8dct=1 / cqm=0 / deadzone=21,11 / fast_pskip=0 / chroma_qp_offset=-2 / threads=6 / lookahead_threads=1 / sliced_threads=0 / nr=0 / decimate=1 / interlaced=0 / bluray_compat=0 / constrained_intra=0 / bframes=8 / b_pyramid=2 / b_adapt=2 / b_bias=0 / direct=3 / weightb=1 / open_gop=0 / weightp=2 / keyint=240 / keyint_min=23 / scenecut=40 / intra_refresh=0 / rc=2pass / mbtree=0 / bitrate=7068 / ratetol=2.0 / qcomp=1.00 / qpmin=0 / qpmax=51 / qpstep=4 / cplxblur=20.0 / qblur=0.5 / ip_ratio=1.40 / pb_ratio=1.30 / aq=1:1.00
Color primaries : BT.709-5, BT.1361, IEC 61966-2-4, SMPTE RP177
Transfer characteristics : BT.709-5, BT.1361
Matrix coefficients : BT.709-5, BT.1361, IEC 61966-2-4 709, SMPTE RP177

Audio #1
ID : 2
Format : AC-3
Format/Info : Audio Coding 3
Mode extension : CM (complete main)
Codec ID : A_AC3
Duration : 1h 21mn
Bit rate mode : Constant
Bit rate : 192 Kbps
Channel(s) : 2 channels
Channel positions : Front: L R
Sampling rate : 48.0 KHz
Bit depth : 16 bits
Stream size : 112 MiB (3%)
Language : Russian

Audio #2
ID : 3
Format : AC-3
Format/Info : Audio Coding 3
Mode extension : CM (complete main)
Codec ID : A_AC3
Duration : 1h 21mn
Bit rate mode : Constant
Bit rate : 384 Kbps
Channel(s) : 6 channels
Channel positions : Front: L C R, Side: L R, LFE
Sampling rate : 48.0 KHz
Bit depth : 16 bits
Stream size : 225 MiB (5%)
Language : Czech





Релиз от:



   Похожие торренты   Торрент   Размер 
В этой теме нет новых непрочитанных сообщений. Соколово / Sokolovo ; Освобождение Праги / Osvobozeni Prahy (1974 / 1976) DVDRip

15 | 9

3.8 ГБ

В этой теме нет новых непрочитанных сообщений. Легенды старой Праги (2007) DVDRip-AVC

96 | 1

1.21 ГБ

В этой теме нет новых непрочитанных сообщений. Городские легенды / Urban Legend (1998) BDRip 1080p от FREEISLAND

4 | 10

7.95 ГБ

В этой теме нет новых непрочитанных сообщений. Кулак легенды / Fist of Legend / Jing wu ying xiong (1994) BDRip 1080p от FREEISLAND

20 | 6

4.37 ГБ

В этой теме нет новых непрочитанных сообщений. Легенды ночных стражей / Legend of the Guardians: The Owls of Ga'Hoole (2010) BDRip-AVC 1080p от FREEISLAND

2 | 2

4.36 ГБ

В этой теме нет новых непрочитанных сообщений. Безумный спецназ / The Men Who Stare at Goats (2009) BDRip 1080p от NNNB

48 | 10

7.75 ГБ

В этой теме нет новых непрочитанных сообщений. 10 000 лет до н.э. / 10,000 BC (2008) BDRip 1080p от Freeisland

2 | 2

5 ГБ




Вы не можете начинать темы
Вы не можете отвечать на сообщения
Вы не можете редактировать свои сообщения
Вы не можете удалять свои сообщения
Вы не можете добавлять вложения

Перейти:  
Для Мосгорсуда, Роскомнадзора и рекламодателей: mosgorsud-torrent[собачка]yandex.ru
 Вход
ppkBB3cker v.2 © 2008-2014 @ PPK
[ Time : 0.057s | 14 Queries | GZIP : Off ]

Торрент трекер RUTOR.IN, Не можете зайти на rutor.org? Какой новый адрес рутор? Какое зеркало рутор? Не работает rutor.org и зеркала? Тогда наш торрент специально для вас. Rutor.in неофициальное зеркало rutor. В случае если у Вас заблокирован rutor или вдруг Вы не можете на него зайти, то Вы без труда сможете скачать бесплатно и без рекламы последние новинки кино, игр, сериалов и прочего у нас, на Rutor.in. Не нужно использовать прокси, чтобы зайти на рутор, достаточно воспользоваться нашим ресурсом. Все новые фильмы, игры, сериалы, книги и музыка за 2013 и 2014 годы через торрент бесплатно. Скачивайте фильмы в хорошем качестве, игры для пк, xbox, playstation без регистрации. У нас вы найдете новые Зарубежные сериалы и Русские сериалы 2013, 2014, 2015 годов. Оставайтесь с нами, качайте любимые фильмы, игры, сериалы, книги и музыку.