img image001 image001 image001 image001 image001 image001 image001 image001 image001 image001 image001 image001 image001 image001 image001

Planets Sun Sun Sun
Статистика раздачи
Автор: Снежана | Размер: 5.22 ГБ | Добавлен: 27 июл 2013
Раздают: 7    Качают: 2
Скачать торрент
Скачать торрент
Описание торрента

СообщениеДобавлено: 27 июл 2013 

Бэмби

Bambi

«A great love story.»




#77
Год выпуска: 1942
Страна: США
Жанр: мультфильм, драма, семейный, ...
Продолжительность: 01:09:50
Перевод: Профессиональный (дублированный)
Субтитры: Russian (UTF-8)

Режиссер: Джеймс Элгар, Сэмюэл Армстронг, Дэвид Хэнд, ...
Сценарий: Феликс Зальтен, Перс Пирс, Ларри Мори, ...
Продюсер: Уолт Дисней
Композитор: Фрэнк Черчилль, Эдвард Х. Пламб
Художник: Том Кодрик, Роберт Кормак, Ллойд Хартинг, ...

В ролях: Харди Олбрайт / Hardie Albright (Adolescent Bambi, озвучка, в титрах не указан), Стэн Александр / Stan Alexander (Young Flower, озвучка, в титрах не указан), Бобетт Одри / Bobette Audrey (озвучка, в титрах не указана), Питер Бен / Peter Behn (Young Thumper, озвучка, в титрах не указан), Тельма Бордман / Thelma Boardman (Mrs. Quail / Pheasant, озвучка, в титрах не указана), Джанет Чэпман / Janet Chapman (озвучка, в титрах не указана), Джинн Кристи / Jeanne Christy (озвучка, в титрах не указана), Долин Брэмстон Кук / Dolyn Bramston Cook (озвучка, в титрах не указан)


Описание: Однажды утром на маленькой, освещенной весенним солнцем, лесной полянке родился олененок. На нового лесного принца сбежались и слетелись посмотреть все звери и птицы. Олененка назвали Бэмби. Когда Бэмби научился ходить и разговаривать он обзавелся друзьями — кроликом Тампером и скунсом Цветочком. А однажды на лугу, куда привела его мама, Бэмби познакомился с маленькой веселой оленихой — Фэйлин. Но жизнь в лесу бывает опасной и жестокой. Впервые Бэмби столкнулся с этим, когда прозрачный осенний лесной воздух пронзили выстрелы из ружья — все звери начали в панике убегать, и тогда Бэмби впервые услышал страшное слово — Человек.

Сборы в США: $102 247 150
Сборы в мире: + $165 200 000 = $267 447 150
Зрители: США 63.7 млн , Франция 12.2 млн , Великобритания 9 млн
Премьера (мир): 8 августа 1942, ...
Релиз на DVD: 1 марта 2011, «Уолт Дисней Компани СНГ», ...
Рейтинг MPAA: Нет возрастных ограничений



Качество: BDRip
Формат: MKV
Видео кодек: AVC
Аудио кодеk: AC3
Видео: 1456x1080 (4:3), 23.976 fps, AVC, 7 877 Kbps
Аудио #1: AC3, 640 Kbps, 48.0 KHz, 6 ch (RUS Dub - СЕЕ)
Аудио #2: AC3, 448 Kbps, 48.0 KHz, 6 ch (Engl)





Отдельно в папке:
1. AC3, 448 Kbps, 48.0 KHz, 6 ch (RUS АVO - Гаврилов)
2. AC3, 448 Kbps, 48.0 KHz, 6 ch (RUS AVO - Живов)
3. AC3, 448 Kbps, 48.0 KHz, 6 ch (RUS AVO - Михалёв)
4. AC3, 192 Kbps, 48.0 KHz, 2 ch (RUS AVO - Горшаков)
5. AC3, 192 Kbps, 48.0 KHz, 2 ch (RUS AVO - Иванов)




[Information] [18.03.2013 22:44:06]
-[NoImage] x264 [info]: frame I:696 Avg QP: 9.83 size:389655
-[NoImage] x264 [info]: frame P:32092 Avg QP:12.16 size: 74936
-[NoImage] x264 [info]: frame B:67682 Avg QP:13.62 size: 21436

General
Complete name : Bambi.1942.BDRip.1080p.mkv
Format : Matroska
File size : 4.38 GiB
Duration : 1h 9mn
Overall bit rate : 8 969 Kbps
Encoded date : UTC 2013-03-18 18:54:38
Writing application : mkvmerge v5.3.0 ('I could have danced') built on Feb 9 2012 10:38:07
Writing library : libebml v1.2.3 + libmatroska v1.3.0

Video
ID : 1
Format : AVC
Format/Info : Advanced Video Codec
Format profile : High@L4.1
Format settings, CABAC : Yes
Format settings, ReFrames : 5 frames
Format settings, GOP : N=15
Muxing mode : Container profile=Unknown@4.1
Codec ID : V_MPEG4/ISO/AVC
Duration : 1h 9mn
Bit rate : 7 877 Kbps
Width : 1 456 pixels
Height : 1 080 pixels
Display aspect ratio : 4:3
Frame rate : 23.976 fps
Color space : YUV
Chroma subsampling : 4:2:0
Bit depth : 8 bits
Scan type : Progressive
Bits/(Pixel*Frame) : 0.209
Stream size : 3.76 GiB (86%)
Writing library : x264 core 129 r2230 1cffe9f
Encoding settings : cabac=1 / ref=5 / deblock=1:0:0 / analyse=0x3:0x133 / me=umh / subme=10 / psy=1 / psy_rd=1.00:0.00 / mixed_ref=1 / me_range=32 / chroma_me=1 / trellis=2 / 8x8dct=1 / cqm=0 / deadzone=21,11 / fast_pskip=0 / chroma_qp_offset=-2 / threads=6 / lookahead_threads=1 / sliced_threads=0 / nr=0 / decimate=1 / interlaced=0 / bluray_compat=0 / constrained_intra=0 / bframes=8 / b_pyramid=2 / b_adapt=2 / b_bias=0 / direct=3 / weightb=1 / open_gop=0 / weightp=2 / keyint=240 / keyint_min=23 / scenecut=40 / intra_refresh=0 / rc=2pass / mbtree=0 / bitrate=7877 / ratetol=2.0 / qcomp=1.00 / qpmin=0 / qpmax=51 / qpstep=4 / cplxblur=20.0 / qblur=0.5 / ip_ratio=1.40 / pb_ratio=1.30 / aq=1:1.00
Color primaries : BT.709-5, BT.1361, IEC 61966-2-4, SMPTE RP177
Transfer characteristics : BT.709-5, BT.1361
Matrix coefficients : BT.709-5, BT.1361, IEC 61966-2-4 709, SMPTE RP177

Audio #1
ID : 2
Format : AC-3
Format/Info : Audio Coding 3
Mode extension : CM (complete main)
Codec ID : A_AC3
Duration : 1h 9mn
Bit rate mode : Constant
Bit rate : 640 Kbps
Channel(s) : 6 channels
Channel positions : Front: L C R, Side: L R, LFE
Sampling rate : 48.0 KHz
Bit depth : 16 bits
Stream size : 320 MiB (7%)
Title : Дубляж - СЕЕ
Language : Russian

Audio #2
ID : 3
Format : AC-3
Format/Info : Audio Coding 3
Mode extension : CM (complete main)
Codec ID : A_AC3
Duration : 1h 9mn
Bit rate mode : Constant
Bit rate : 448 Kbps
Channel(s) : 6 channels
Channel positions : Front: L C R, Side: L R, LFE
Sampling rate : 48.0 KHz
Bit depth : 16 bits
Stream size : 224 MiB (5%)
Title : СЕЕ

Text
ID : 4
Format : UTF-8
Codec ID : S_TEXT/UTF8
Codec ID/Info : UTF-8 Plain Text
Language : Russian

Menu
00:00:00.000 : en:00:00:00.000
00:01:19.204 : en:00:01:19.204
00:05:13.146 : en:00:05:13.146
00:08:19.874 : en:00:08:19.874
00:09:50.840 : en:00:09:50.840
00:13:53.458 : en:00:13:53.458
00:15:56.914 : en:00:15:56.914
00:19:50.773 : en:00:19:50.773
00:24:25.422 : en:00:24:25.422
00:27:16.093 : en:00:27:16.093
00:28:26.079 : en:00:28:26.079
00:30:37.044 : en:00:30:37.044
00:34:07.963 : en:00:34:07.963
00:35:29.627 : en:00:35:29.627
00:41:00.124 : en:00:41:00.124
00:41:57.598 : en:00:41:57.598
00:43:28.981 : en:00:43:28.981
00:46:07.848 : en:00:46:07.848
00:47:24.550 : en:00:47:24.550
00:52:25.476 : en:00:52:25.476
00:53:40.801 : en:00:53:40.801
00:55:30.202 : en:00:55:30.202
00:57:40.957 : en:00:57:40.957
01:03:16.251 : en:01:03:16.251
01:07:17.992 : en:01:07:17.992


★ Несмотря на то, что непосредственно увидеть Человека в мультфильме нельзя, его появление знаменует зловещая музыка. Позже этот метод изображения приближающейся опасности (тяжёлый, простой, повторяющийся мотив) был использован Стивеном Спилбергом в его знаменитой киноленте «Челюсти».

★ Причина, по которой Великий Князь исключительно редко появляется в мультфильме и почти не говорит — сложности в анимации его рогов. Позже, при работе над продолжением «Бэмби 2», аниматор Фрэнк Томас (один из главных аниматоров «Бэмби») признавался, что художникам приходилось использовать специальную статуэтку оленя для правильной отрисовки, но даже в этом случае в слишком сложных сценах анимация получалась неестественной.

★ В книге-первоисточнике, помимо Фэлин, у Бэмби есть ещё один друг-оленёнок — Гобо (брат Фэлин). У Ронно также был приятель Карус. Кроме того, после смерти мамы за Бэмби присматривали оленихи Неттла и Марена. Маму Фэлин звали Ина (Ena, в некоторых переводах — Энна)

★ Бэмби — второй по счёту мультфильм Уолта Диснея (первый — «Дамбо»), действие которого происходит в наши дни.

★ В честь Бэмби и Топотуна названы две малых планеты — за номерами 15845 и 16626 соответственно.

★ Американский киноинститут (American Film Institute, AFI) признал Человека одним из пятидесяти величайших злодеев кинематографа.





Релиз от:



   Похожие торренты   Торрент   Размер 
В этой теме нет новых непрочитанных сообщений. Бэмби / Bambi (1942) BDRip 1080p | 60 fps

108 | 5

4.23 ГБ

В этой теме нет новых непрочитанных сообщений. Бэмби / Bambi (1942) BDRip 1080p от MediaClub

42 | 6

5.5 ГБ

В этой теме нет новых непрочитанных сообщений. Бэмби / Bambi (1942) BDRip 1080p от KinoZalSat

183 | 12

4.17 ГБ

В этой теме нет новых непрочитанных сообщений. Бэмби 2 / Bambi II (2006) BDRip 1080p от Freeisland

22 | 11

4.37 ГБ

В этой теме нет новых непрочитанных сообщений. Бэмби / Bambi (1942) BDRip 720p | 60 fps

390 | 16

2.32 ГБ

В этой теме нет новых непрочитанных сообщений. Бэмби / Bambi (1942) BDRip от HQCLUB

474 | 16

1.45 ГБ

В этой теме нет новых непрочитанных сообщений. Бэмби / Bambi (1942) BDRip-AVC | iPad

200 | 8

882.28 МБ




Вы не можете начинать темы
Вы не можете отвечать на сообщения
Вы не можете редактировать свои сообщения
Вы не можете удалять свои сообщения
Вы не можете добавлять вложения

Перейти:  
Для Мосгорсуда, Роскомнадзора и рекламодателей: mosgorsud-torrent[собачка]yandex.ru
 Вход
ppkBB3cker v.2 © 2008-2014 @ PPK
[ Time : 0.985s | 14 Queries | GZIP : Off ]

Торрент трекер RUTOR.IN, Не можете зайти на rutor.org? Какой новый адрес рутор? Какое зеркало рутор? Не работает rutor.org и зеркала? Тогда наш торрент специально для вас. Rutor.in неофициальное зеркало rutor. В случае если у Вас заблокирован rutor или вдруг Вы не можете на него зайти, то Вы без труда сможете скачать бесплатно и без рекламы последние новинки кино, игр, сериалов и прочего у нас, на Rutor.in. Не нужно использовать прокси, чтобы зайти на рутор, достаточно воспользоваться нашим ресурсом. Все новые фильмы, игры, сериалы, книги и музыка за 2013 и 2014 годы через торрент бесплатно. Скачивайте фильмы в хорошем качестве, игры для пк, xbox, playstation без регистрации. У нас вы найдете новые Зарубежные сериалы и Русские сериалы 2013, 2014, 2015 годов. Оставайтесь с нами, качайте любимые фильмы, игры, сериалы, книги и музыку.