img image001 image001 image001 image001 image001 image001 image001 image001 image001 image001 image001 image001 image001 image001 image001

Planets Sun Sun Sun
Статистика раздачи
Автор: Снежана | Размер: 4.37 ГБ | Добавлен: 27 июл 2013
Раздают: 22    Качают: 11
Скачать торрент
Скачать торрент
Описание торрента

СообщениеДобавлено: 27 июл 2013 

Бэмби 2

Bambi II

«Отвага сына. Любовь отца.»




#77
Год выпуска: 2006
Страна: США
Жанр: мультфильм, драма, семейный, ...
Продолжительность: 01:12:21
Перевод: Профессиональный (дублированный)
Субтитры: Russian (UTF-8)

Режиссер: Брайан Пиментал
Сценарий: Алисия Кирк, Ник Тил, Роджер С.Х. Шульман, ...
Продюсер: Джим Бэллэнтайн, Дэйв Окей
Композитор: Брюс Бротон
Художник: Кэрол Киффер Полис
Монтаж: Джереми Милтон, Марк Соломон

В ролях: Патрик Стюарт / Patrick Stewart (The Great Prince, озвучка), Александр Гоулд / Alexander Gould (Bambi, озвучка), Кейт Фергюсон / Keith Ferguson (Friend Owl, озвучка), Брендон Берг / Brendon Baerg (Thumper, озвучка), Никки Джонс / Nicky Jones (Flower, озвучка), Андреа Бауэн / Andrea Bowen (Faline, озвучка), Энтони Гэннам / Anthony Ghannam (Ronno, озвучка), Макенна Кауджилл / Makenna Cowgill (Thumper's Sister, озвучка)


Описание: После смерти матери, Бэмби воссоединяется со своим отцом, Большим принцем леса, который берется за воспитание молодого оленя и обучению разным лесным премудростям. Но внезапно, гордый родитель обнаруживает, что он тоже может кое-чему научиться от его энергичного молодого сына…

Сборы в мире: $34 557 000
Зрители: Франция 1.85 млн , Испания 479.7 тыс. , Италия 349.5 тыс.
Премьера (мир): 26 января 2006, ...
Релиз на DVD: 9 августа 2011, «ВС трейд», ...
Рейтинг MPAA: Нет возрастных ограничений



Качество: BDRip
Формат: MKV
Видео кодек: AVC
Аудио кодеk: AC3
Видео: 1920x1080 (16:9), 23.976 fps, AVC, 7 628 Kbps
Аудио #1: AC3, 640 Kbps, 48.0 KHz, 6 ch (RUS Dub - СЕЕ)
Аудио #2: AC3, 384 Kbps, 48.0 KHz, 6 ch (Engl)




[Information] [19.03.2013 7:52:35]
-[NoImage] x264 [info]: frame I:873 Avg QP:11.45 size:273459
-[NoImage] x264 [info]: frame P:30796 Avg QP:13.56 size: 76333
-[NoImage] x264 [info]: frame B:72419 Avg QP:14.94 size: 21415

General
Complete name : Bembi.2.2006.BDRip.1080p.mkv
Format : Matroska
File size : 4.37 GiB
Duration : 1h 12mn
Overall bit rate : 8 656 Kbps
Encoded date : UTC 2013-03-19 03:52:37
Writing application : mkvmerge v5.3.0 ('I could have danced') built on Feb 9 2012 10:38:07
Writing library : libebml v1.2.3 + libmatroska v1.3.0

Video
ID : 1
Format : AVC
Format/Info : Advanced Video Codec
Format profile : High@L4.1
Format settings, CABAC : Yes
Format settings, ReFrames : 4 frames
Muxing mode : Container profile=Unknown@4.1
Codec ID : V_MPEG4/ISO/AVC
Duration : 1h 12mn
Bit rate : 7 628 Kbps
Width : 1 920 pixels
Height : 1 080 pixels
Display aspect ratio : 16:9
Frame rate : 23.976 fps
Color space : YUV
Chroma subsampling : 4:2:0
Bit depth : 8 bits
Scan type : Progressive
Bits/(Pixel*Frame) : 0.153
Stream size : 3.77 GiB (86%)
Writing library : x264 core 129 r2230 1cffe9f
Encoding settings : cabac=1 / ref=4 / deblock=1:0:0 / analyse=0x3:0x133 / me=umh / subme=10 / psy=1 / psy_rd=1.00:0.00 / mixed_ref=1 / me_range=32 / chroma_me=1 / trellis=2 / 8x8dct=1 / cqm=0 / deadzone=21,11 / fast_pskip=0 / chroma_qp_offset=-2 / threads=6 / lookahead_threads=1 / sliced_threads=0 / nr=0 / decimate=1 / interlaced=0 / bluray_compat=0 / constrained_intra=0 / bframes=9 / b_pyramid=2 / b_adapt=2 / b_bias=0 / direct=3 / weightb=1 / open_gop=0 / weightp=2 / keyint=240 / keyint_min=23 / scenecut=40 / intra_refresh=0 / rc=2pass / mbtree=0 / bitrate=7628 / ratetol=2.0 / qcomp=1.00 / qpmin=0 / qpmax=51 / qpstep=4 / cplxblur=20.0 / qblur=0.5 / ip_ratio=1.40 / pb_ratio=1.30 / aq=1:1.00
Color primaries : BT.709-5, BT.1361, IEC 61966-2-4, SMPTE RP177
Transfer characteristics : BT.709-5, BT.1361
Matrix coefficients : BT.709-5, BT.1361, IEC 61966-2-4 709, SMPTE RP177

Audio #1
ID : 2
Format : AC-3
Format/Info : Audio Coding 3
Mode extension : CM (complete main)
Codec ID : A_AC3
Duration : 1h 12mn
Bit rate mode : Constant
Bit rate : 640 Kbps
Channel(s) : 6 channels
Channel positions : Front: L C R, Side: L R, LFE
Sampling rate : 48.0 KHz
Bit depth : 16 bits
Stream size : 331 MiB (7%)
Title : Дубляж - СЕЕ
Language : Russian

Audio #2
ID : 3
Format : AC-3
Format/Info : Audio Coding 3
Mode extension : CM (complete main)
Codec ID : A_AC3
Duration : 1h 12mn
Bit rate mode : Constant
Bit rate : 384 Kbps
Channel(s) : 6 channels
Channel positions : Front: L C R, Side: L R, LFE
Sampling rate : 48.0 KHz
Bit depth : 16 bits
Stream size : 199 MiB (4%)

Text
ID : 4
Format : UTF-8
Codec ID : S_TEXT/UTF8
Codec ID/Info : UTF-8 Plain Text
Language : Russian

Menu
00:00:00.000 : en:00:00:00.000
00:05:28.328 : en:00:05:28.328
00:09:20.226 : en:00:09:20.226
00:13:00.738 : en:00:13:00.738
00:16:53.387 : en:00:16:53.387
00:20:29.895 : en:00:20:29.895
00:26:07.691 : en:00:26:07.691
00:30:34.249 : en:00:30:34.249
00:34:45.625 : en:00:34:45.625
00:38:42.862 : en:00:38:42.862
00:42:58.743 : en:00:42:58.743
00:48:08.010 : en:00:48:08.010
00:52:26.310 : en:00:52:26.310
00:54:09.455 : en:00:54:09.455
01:00:05.602 : en:01:00:05.602
01:04:38.124 : en:01:04:38.124


★ Название картины менялось трижды — поначалу мультфильм планировалось назвать «Бэмби и Великий Князь», затем название сменилось на «Бэмби и Великий Князь леса», но в конце-концов было решено остановиться на более простом названии «Бэмби 2».

★ При замедленном просмотре, в самом начале мультфильма (эпизод, где Бэмби с отцом переходят мелководье) можно заметить дефект заливки: в одном из кадров область вокруг глаза Бэмби — не светло-коричневая, как обычно, а белая.

★ Как и в случае с первым «Бэмби», художники изучали поведение живых оленей с целью добиться максимальной реалистичности в анимации.

★ Персонажей Сурка и Дикобраза озвучил сам режиссёр — Брайан Пименталь.





Релиз от:



   Похожие торренты   Торрент   Размер 
В этой теме нет новых непрочитанных сообщений. Бэмби 2 / Bambi 2 (2006) BDRip 720p от Freeisland

6 | 19

4.37 ГБ

В этой теме нет новых непрочитанных сообщений. Бэмби / Bambi (1942) BDRip 1080p от Freeisland

7 | 2

5.22 ГБ

В этой теме нет новых непрочитанных сообщений. Бэмби 2 / Bambi II (2006) BDRip 1080p от KinoZalSat

14 | 7

5.72 ГБ

В этой теме нет новых непрочитанных сообщений. Бэмби 2 / Bambi II (2006) BDRip-AVC | iPad

88 | 5

1.04 ГБ

В этой теме нет новых непрочитанных сообщений. Бемби 2 / Бэмби 2 / Bambi II (2006) BDRip от HQCLUB

508 | 14

1.45 ГБ

В этой теме нет новых непрочитанных сообщений. Бэмби / Bambi (1942) BDRip 1080p | 60 fps

108 | 5

4.23 ГБ

В этой теме нет новых непрочитанных сообщений. Бэмби 2 / Bambi 2 (2006) DVD5

97 | 5

4.2 ГБ




Вы не можете начинать темы
Вы не можете отвечать на сообщения
Вы не можете редактировать свои сообщения
Вы не можете удалять свои сообщения
Вы не можете добавлять вложения

Перейти:  
Для Мосгорсуда, Роскомнадзора и рекламодателей: mosgorsud-torrent[собачка]yandex.ru
 Вход
ppkBB3cker v.2 © 2008-2014 @ PPK
[ Time : 0.046s | 17 Queries | GZIP : Off ]

cron