img image001 image001 image001 image001 image001 image001 image001 image001 image001 image001 image001 image001 image001 image001 image001

Planets Sun Sun Sun
Статистика раздачи
Автор: Снежана | Размер: 21.86 ГБ | Добавлен: 27 июл 2013
Раздают: 16    Качают: 7
Скачать торрент
Скачать торрент
Описание торрента

СообщениеДобавлено: 27 июл 2013 

#77

Астерикс против Цезаря

Asterix vs. Caesar / Asterix et la surprise de Cesar

«Beating down a path to Rome!»



Год выпуска: 1985
Страны: Франция
Жанры: мультфильм, комедия, приключения, семейный
Продолжительность: 01:16:30
Режиссер: Гаэтан Брицци, Пол Брицци
Перевод: Профессиональный + авторский + Оригинал

В ролях:
Роже Карель, Пьер Торнад, Пьер Монди, Serge Sauvion, Анри Лабюсьер, Roger Lumont, Хосе Люссьони, Мишель Барбе, Paul Mercey, Ив Барсак

Описание:
Однажды Обеликс влюбился в прекрасную Фальбалу. Приглянулась она ему. Казалось бы, дело к свадьбе. Но гордая Фальбалу не разделила порыв великана друида, положив глаз на красавца Трагикомикса. Обеликс погоревал-погоревал, да и утешился.
До тех пор, пока злобные римляне не похитили предательским образом двоих влюбленных и не увезли их на край света — в Африку. Естественно, друзья не могли сидеть сложа руки. Недолго думая, Астерикс и Обеликс отправляются в новый поход, как всегда, полный смертельных опасностей и веселых приключений. А римская арена по случаю дня рождения Цезаря уже заполнена народом и все ждут жертвоприношения…



Качество: BDRip 1080p (источник: Blu-ray Disc)
Формат: MKV
Видео кодек: H.264 (AVC)
Аудио кодек: AC3
Видео: 1792x1080, 6069 Kbps, 23,976 fps
Звук: 48 kHz, AC3, 2c, 640 kbps Профессиональный Многоголосый закадровый, R5
Звук: 48 kHz, AC3, 2c, 640 kbps Авторский одноголосный (Юрий Живов)
Звук: 48 kHz, AC3, 2c, 640 kbps Оригинал
Звук: 48 kHz, AC3, 2c, 192 kbps Английский
Субтитры: Русские, Английские



Общее
Формат : Matroska
Версия формата : Version 4 / Version 2
Размер файла : 4,37 Гбайт
Продолжительность : 1 ч. 16 м.
Общий поток : 8181 Кбит/сек
Дата кодирования : UTC 2013-03-19 08:18:44
Программа кодирования : mkvmerge v6.1.0 ('Old Devil') built on Mar 2 2013 14:32:37
Библиотека кодирования : libebml v1.3.0 + libmatroska v1.4.0
Attachment : Yes / Yes

Видео
Идентификатор : 1
Формат : AVC
Формат/Информация : Advanced Video Codec
Профиль формата : High@L4.1
Параметр CABAC формата : Да
Параметр ReFrames формата : 4 кадра
Идентификатор кодека : V_MPEG4/ISO/AVC
Продолжительность : 1 ч. 16 м.
Битрейт : 6069 Кбит/сек
Ширина : 1792 пикселя
Высота : 1080 пикселей
Соотношение сторон : 1,659
Режим частоты кадров : Постоянный
Частота кадров : 23,976 кадра/сек
Цветовое пространство : YUV
Субдискретизация насыщенности : 4:2:0
Битовая глубина : 8 бит
Тип развёртки : Прогрессивная
Бит/(Пиксели*Кадры) : 0.131
Размер потока : 3,16 Гбайт (72%)
Заголовок : Rip by Dimok
Библиотека кодирования : x264 core 130 r2273 b3065e6
Настройки программы : cabac=1 / ref=4 / deblock=1:0:0 / analyse=0x3:0x133 / me=umh / subme=11 / psy=1 / psy_rd=1.00:0.50 / mixed_ref=1 / me_range=32 / chroma_me=1 / trellis=2 / 8x8dct=1 / cqm=0 / deadzone=21,11 / fast_pskip=0 / chroma_qp_offset=-2 / threads=12 / lookahead_threads=1 / sliced_threads=0 / slices=1 / nr=0 / decimate=0 / interlaced=0 / bluray_compat=0 / constrained_intra=0 / bframes=3 / b_pyramid=2 / b_adapt=2 / b_bias=0 / direct=3 / weightb=1 / open_gop=0 / weightp=2 / keyint=240 / keyint_min=23 / scenecut=40 / intra_refresh=0 / rc_lookahead=69 / rc=2pass / mbtree=1 / bitrate=6069 / ratetol=1.0 / qcomp=0.60 / qpmin=1 / qpmax=69 / qpstep=4 / cplxblur=20.0 / qblur=0.5 / ip_ratio=1.40 / aq=2:0.80
Язык : English
Default : Да
Forced : Нет

Аудио #1
Идентификатор : 2
Формат : AC-3
Формат/Информация : Audio Coding 3
Расширение режима : CM (complete main)
Параметр Endianness формата : Big
Идентификатор кодека : A_AC3
Продолжительность : 1 ч. 16 м.
Вид битрейта : Постоянный
Битрейт : 640 Кбит/сек
Каналы : 2 канала
Расположение каналов : Front: L R
Частота : 48,0 КГц
Битовая глубина : 16 бит
Метод сжатия : С потерями
Размер потока : 350 Мбайт (8%)
Заголовок : Многоголосый закадровый, R5
Язык : Russian
Default : Да
Forced : Нет

Аудио #2
Идентификатор : 3
Формат : AC-3
Формат/Информация : Audio Coding 3
Расширение режима : CM (complete main)
Параметр Endianness формата : Big
Идентификатор кодека : A_AC3
Продолжительность : 1 ч. 16 м.
Вид битрейта : Постоянный
Битрейт : 640 Кбит/сек
Каналы : 2 канала
Расположение каналов : Front: L R
Частота : 48,0 КГц
Битовая глубина : 16 бит
Метод сжатия : С потерями
Размер потока : 350 Мбайт (8%)
Заголовок : Авторский одноголосый, Юрий Живов
Язык : Russian
Default : Нет
Forced : Нет

Аудио #3
Идентификатор : 4
Формат : AC-3
Формат/Информация : Audio Coding 3
Расширение режима : CM (complete main)
Параметр Endianness формата : Big
Идентификатор кодека : A_AC3
Продолжительность : 1 ч. 16 м.
Вид битрейта : Постоянный
Битрейт : 640 Кбит/сек
Каналы : 2 канала
Расположение каналов : Front: L R
Частота : 48,0 КГц
Битовая глубина : 16 бит
Метод сжатия : С потерями
Размер потока : 350 Мбайт (8%)
Заголовок : Original
Язык : French
Default : Нет
Forced : Нет

Аудио #4
Идентификатор : 5
Формат : AC-3
Формат/Информация : Audio Coding 3
Расширение режима : CM (complete main)
Параметр Endianness формата : Big
Идентификатор кодека : A_AC3
Продолжительность : 1 ч. 16 м.
Вид битрейта : Постоянный
Битрейт : 192 Кбит/сек
Каналы : 2 канала
Расположение каналов : Front: L R
Частота : 48,0 КГц
Битовая глубина : 16 бит
Метод сжатия : С потерями
Размер потока : 105 Мбайт (2%)
Заголовок : English
Язык : English
Default : Нет
Forced : Нет

Текст #1
Идентификатор : 6
Формат : UTF-8
Идентификатор кодека : S_TEXT/UTF8
Идентификатор кодека/Информация : UTF-8 Plain Text
Заголовок : RUS
Язык : Russian
Default : Да
Forced : Нет

Текст #2
Идентификатор : 7
Формат : UTF-8
Идентификатор кодека : S_TEXT/UTF8
Идентификатор кодека/Информация : UTF-8 Plain Text
Заголовок : ENG
Язык : English
Default : Нет
Forced : Нет

Меню
00:00:00.000 : :Chapter 1
00:06:32.391 : :Chapter 2
00:12:00.302 : :Chapter 3
00:18:35.614 : :Chapter 4
00:23:44.798 : :Chapter 5
00:31:30.930 : :Chapter 6
00:37:36.670 : :Chapter 7
00:43:19.387 : :Chapter 8
00:51:54.068 : :Chapter 9
00:57:39.664 : :Chapter 10
01:04:30.114 : :Chapter 11
01:11:07.136 : :Chapter 12

Астерикс в Британии

Asterix in Britain / Asterix chez les Bretons

«I say! The Romans have invaded!»



#77
Год выпуска: 1986
Страны: Франция
Жанры: мультфильм, комедия, приключения, семейный
Продолжительность: 01:18:38
Режиссер: Пино Ван Ламсвеерде
Перевод: Профессиональный + авторский + Оригинал

В ролях:
Роже Карель, Пьер Торнад, Грэхэм Бушнелл, Пьер Монди, Морис Риш, Roger Lumont, Николя Сильберг, Альбер Ожье, Пол Бисцилиа, Берти Кортес

Описание:
Юлий Цезарь не на шутку разозлился на британцев, которые не только не сдавались римским войскам, но и неоднократно помогали в битвах свободолюбивым галлам. Выход один — война. Тем более что британцы воюют лишь пять дней в неделю, да и то с перерывом для чаепития. Хитрый Цезарь вновь забыл, что где-то поблизости, — всего лишь через пролив, — проживает доблестный Астерикс с друзьями. Только им известен секрет таинственного зелья.…А то, что подходит для галлов, подойдет и для британцев!



Качество: BDRip 1080p (источник: Blu-ray Disc)
Формат: MKV
Видео кодек: H.264 (AVC)
Аудио кодек: AC3
Видео: 1792x1080, 5846 Kbps, 23,976 fps
Звук: 48 kHz, AC3, 2c, 640 kbps Профессиональный Многоголосый закадровый, R5
Звук: 48 kHz, AC3, 2c, 640 kbps Авторский одноголосный (Юрий Живов)
Звук: 48 kHz, AC3, 2c, 640 kbps Оригинал
Звук: 48 kHz, AC3, 2c, 192 kbps Английский
Субтитры: Русские, Английские



Общее
Формат : Matroska
Версия формата : Version 4 / Version 2
Размер файла : 4,37 Гбайт
Продолжительность : 1 ч. 18 м.
Общий поток : 7960 Кбит/сек
Дата кодирования : UTC 2013-03-19 06:25:59
Программа кодирования : mkvmerge v6.1.0 ('Old Devil') built on Mar 2 2013 14:32:37
Библиотека кодирования : libebml v1.3.0 + libmatroska v1.4.0

Видео
Идентификатор : 1
Формат : AVC
Формат/Информация : Advanced Video Codec
Профиль формата : High@L4.1
Параметр CABAC формата : Да
Параметр ReFrames формата : 4 кадра
Идентификатор кодека : V_MPEG4/ISO/AVC
Продолжительность : 1 ч. 18 м.
Битрейт : 5846 Кбит/сек
Ширина : 1792 пикселя
Высота : 1080 пикселей
Соотношение сторон : 1,659
Режим частоты кадров : Постоянный
Частота кадров : 23,976 кадра/сек
Цветовое пространство : YUV
Субдискретизация насыщенности : 4:2:0
Битовая глубина : 8 бит
Тип развёртки : Прогрессивная
Бит/(Пиксели*Кадры) : 0.126
Размер потока : 3,13 Гбайт (71%)
Заголовок : Rip by Dimok
Библиотека кодирования : x264 core 130 r2273 b3065e6
Настройки программы : cabac=1 / ref=4 / deblock=1:0:0 / analyse=0x3:0x133 / me=umh / subme=11 / psy=1 / psy_rd=1.00:0.50 / mixed_ref=1 / me_range=32 / chroma_me=1 / trellis=2 / 8x8dct=1 / cqm=0 / deadzone=21,11 / fast_pskip=0 / chroma_qp_offset=-2 / threads=12 / lookahead_threads=1 / sliced_threads=0 / slices=1 / nr=0 / decimate=0 / interlaced=0 / bluray_compat=0 / constrained_intra=0 / bframes=3 / b_pyramid=2 / b_adapt=2 / b_bias=0 / direct=3 / weightb=1 / open_gop=0 / weightp=2 / keyint=240 / keyint_min=23 / scenecut=40 / intra_refresh=0 / rc_lookahead=70 / rc=2pass / mbtree=1 / bitrate=5846 / ratetol=1.0 / qcomp=0.60 / qpmin=1 / qpmax=69 / qpstep=4 / cplxblur=20.0 / qblur=0.5 / ip_ratio=1.40 / aq=2:0.80
Язык : English
Default : Да
Forced : Нет

Аудио #1
Идентификатор : 2
Формат : AC-3
Формат/Информация : Audio Coding 3
Расширение режима : CM (complete main)
Параметр Endianness формата : Big
Идентификатор кодека : A_AC3
Продолжительность : 1 ч. 18 м.
Вид битрейта : Постоянный
Битрейт : 640 Кбит/сек
Каналы : 2 канала
Расположение каналов : Front: L R
Частота : 48,0 КГц
Битовая глубина : 16 бит
Метод сжатия : С потерями
Размер потока : 360 Мбайт (8%)
Заголовок : Профессиональный (многоголосый закадровый) R5
Язык : Russian
Default : Да
Forced : Нет

Аудио #2
Идентификатор : 3
Формат : AC-3
Формат/Информация : Audio Coding 3
Расширение режима : CM (complete main)
Параметр Endianness формата : Big
Идентификатор кодека : A_AC3
Продолжительность : 1 ч. 18 м.
Вид битрейта : Постоянный
Битрейт : 640 Кбит/сек
Каналы : 2 канала
Расположение каналов : Front: L R
Частота : 48,0 КГц
Битовая глубина : 16 бит
Метод сжатия : С потерями
Размер потока : 360 Мбайт (8%)
Заголовок : Авторский (одноголосый закадровый) Живов
Язык : Russian
Default : Нет
Forced : Нет

Аудио #3
Идентификатор : 4
Формат : AC-3
Формат/Информация : Audio Coding 3
Расширение режима : CM (complete main)
Параметр Endianness формата : Big
Идентификатор кодека : A_AC3
Продолжительность : 1 ч. 18 м.
Вид битрейта : Постоянный
Битрейт : 640 Кбит/сек
Каналы : 2 канала
Расположение каналов : Front: L R
Частота : 48,0 КГц
Битовая глубина : 16 бит
Метод сжатия : С потерями
Размер потока : 360 Мбайт (8%)
Заголовок : Original
Язык : French
Default : Нет
Forced : Нет

Аудио #4
Идентификатор : 5
Формат : AC-3
Формат/Информация : Audio Coding 3
Расширение режима : CM (complete main)
Параметр Endianness формата : Big
Идентификатор кодека : A_AC3
Продолжительность : 1 ч. 18 м.
Вид битрейта : Постоянный
Битрейт : 192 Кбит/сек
Каналы : 2 канала
Расположение каналов : Front: L R
Частота : 48,0 КГц
Битовая глубина : 16 бит
Метод сжатия : С потерями
Размер потока : 108 Мбайт (2%)
Заголовок : English
Язык : English
Default : Нет
Forced : Нет

Текст #1
Идентификатор : 6
Формат : UTF-8
Идентификатор кодека : S_TEXT/UTF8
Идентификатор кодека/Информация : UTF-8 Plain Text
Заголовок : RUS
Язык : Russian
Default : Да
Forced : Нет

Текст #2
Идентификатор : 7
Формат : UTF-8
Идентификатор кодека : S_TEXT/UTF8
Идентификатор кодека/Информация : UTF-8 Plain Text
Заголовок : Eng
Язык : English
Default : Нет
Forced : Нет

Меню
00:00:00.000 : en:Chapter 1
00:06:10.370 : en:Chapter 2
00:12:49.808 : en:Chapter 3
00:19:48.394 : en:Chapter 4
00:25:24.520 : en:Chapter 5
00:34:44.081 : en:Chapter 6
00:40:33.097 : en:Chapter 7
00:46:54.728 : en:Chapter 8
00:53:00.635 : en:Chapter 9
00:59:34.402 : en:Chapter 10
01:06:06.963 : en:Chapter 11
01:12:45.734 : en:Chapter 12

Большой бой Астерикса

Asterix and the Big Fight / Asterix et le coup du menhir

«The Gauls without the magic potion?! By Toutatis!»



#77
Год выпуска: 1989
Страны: Франция, Германия (ФРГ)
Жанры: мультфильм, комедия, приключения, семейный
Продолжительность: 01:20:03
Режиссер: Филипп Гримон
Перевод: Профессиональный + авторский + Оригинал

В ролях:
Роже Карель, Пьер Торнад, Анри Лабюсьер, Жюльен Гиомар, Анри Пуарье, Мари-Анн Шазель, Roger Lumont, Патрик Прежан, Edgar Givry, Jean-Jacques Cramier

Описание:
Как известно, настоящему галлу все нипочем. Он и в огне не горит, и в воде не тонет. Но на этот раз даже Астериксу приходится несладко: ведь на его деревню обрушивается ураган невиданной силы. Помочь нашему герою может только друид Починикс, на которого, как назло, только что свалился огромный валун. Бедняга никого не узнает…Обо всем этом становится известно Юлию Цезарю — а уж он спит и видит, кого бы еще завоевать. Впереди большой бой — и наши веселые герои выходят на него с открытым забралом.



Качество: BDRip 1080p (источник: Blu-ray Disc)
Формат: MKV
Видео кодек: H.264 (AVC)
Аудио кодек: AC3
Видео: 1792x1040, 5968 Kbps, 23,976 fps
Звук: 48 kHz, AC3, 2c, 640 kbps Профессиональный Многоголосый закадровый, R5
Звук: 48 kHz, AC3, 6c, 348 kbps Авторский одноголосный (Юрий Живов)
Звук: 48 kHz, AC3, 2c, 640 kbps Оригинал
Звук: 48 kHz, AC3, 2c, 192 kbps Английский
Субтитры: Русские, Английские, Украинские, Французские



Астерикс завоевывает Америку

Asterix in America

«Danger lurks on foreign shores!»



#77
Год выпуска: 1994
Страны: Германия, Франция
Жанры: мультфильм, комедия, приключения, семейный
Продолжительность: 01:24:45
Режиссер: Герхард Хан
Перевод: Профессиональный + авторский + Оригинал

В ролях:
Роже Карель, Пьер Торнад, Анри Лабюсьер, Francois Chaix, Michel Tugot-Doris, Жан Дортрэмэ, Робер Парти, Jean-Luc Galmiche, Оливье Янкович, Натали Спитцер

Описание:
«Вчера будет завтра позавчера» — так говаривали мудрецы-друиды в далекие-далекие времена, когда люди считали, что Земля больше всего похожа на пиццу. Тогда был еще жив Юлий Цезарь, которому и пришла в голову мысль, как римлянам победить свободолюбивых друидов, проживавших в маленькой галльской деревушке.
По приказу императора центурион Люций похитил друида Починикса и отправил его вместе с псом Догматиксом на край света. Но за ними следом увязалась славная парочка Астерикс и Обеликс…
Снят этот и другие мультфильмы по мотивам популярного в Европе комикса о приключениях Астерикса (который никогда не снимает свой шлем — даже для того, чтобы помыть голову) и его друзей, ранее побывавших в Британии, Египте, Германии, а теперь занесенных судьбой в Новый Свет, в Америку, где жили кровожадные краснокожие индейцы!



Качество: BDRip 1080p (источник: Blu-ray Disc)
Формат: MKV
Видео кодек: H.264 (AVC)
Аудио кодек: AC3
Видео: 1920x1040, 4830 Kbps, 23,976 fps
Звук: 48 kHz, AC3, 6c, 640 kbps Профессиональный (многоголосый закадровый) R5
Звук: 48 kHz, AC3, 6c, 640 kbps Авторский одноголосный (Юрий Живов)
Звук: 48 kHz, AC3, 6c, 640 kbps Оригинал
Звук: 48 kHz, AC3, 6c, 640 kbps Английский
Субтитры: Русские, Английские



Астерикс и викинги

Asterix and the Vikings / Asterix et les Vikings

«Трепещите, викинги нападают!»



#77
Год выпуска: 2006
Страны: Диния, Франция
Жанры: мультфильм, комедия, приключения, семейный
Продолжительность: 01:18:13
Режиссер: Стефан Фьелдмарк, Джеспер Мюллер
Перевод: Дубляж + Оригинал

В ролях:
Роже Карель, Лоран Дойч, Сара Форестье, Жак Франц, Пьер Палмаде, Пьер Черния, Бернар Алан, Марк Альфос, Жуль Азем, Патрик Борг

Описание:
Астерикс и его друг Обеликс впервые в своей жизни должны встретиться с викингами. Бесстрашные воины из северной страны выкрали племянника вождя галлов, юного Задиру. Миссия чрезвычайно опасна, так как викинги слывут отчаянными и безжалостными воинами…


Качество: BDRip 1080p (источник: Blu-ray Disc)
Формат: MKV
Видео кодек: H.264 (AVC)
Аудио кодек: AC3
Видео: 1920x1040, 6077 Kbps, 24,000 fps
Звук: 48 kHz, AC3, 6c, 640 kbps Дубляж
Звук: 48 kHz, AC3, 6c, 640 kbps Оригинал
Звук: 48 kHz, AC3, 6c, 640 kbps Английский
Субтитры: Русские, Английские



[spoiler="MI"]Общее
Формат : Matroska
Версия формата : Version 4 / Version 2
Размер файла : 4,37 Гбайт
Продолжительность : 1 ч. 18 м.
Общий поток : 8000 Кбит/сек
Дата кодирования : UTC 2013-03-19 07:51:38
Программа кодирования : mkvmerge v6.1.0 ('Old Devil') built on Mar 2 2013 14:32:37
Библиотека кодирования : libebml v1.3.0 + libmatroska v1.4.0
Attachment : Yes

Видео
Идентификатор : 1
Формат : AVC
Формат/Информация : Advanced Video Codec
Профиль формата : High@L4.1
Параметр CABAC формата : Да
Параметр ReFrames формата : 4 кадра
Идентификатор кодека : V_MPEG4/ISO/AVC
Продолжительность : 1 ч. 18 м.
Битрейт : 6077 Кбит/сек
Ширина : 1920 пикселей
Высота : 1040 пикселей
Соотношение сторон : 1,85:1
Режим частоты кадров : Постоянный
Частота кадров : 24,000 кадра/сек
Цветовое пространство : YUV
Субдискретизация насыщенности : 4:2:0
Битовая глубина : 8 бит
Тип развёртки : Прогрессивная
Бит/(Пиксели*Кадры) : 0.127
Размер потока : 3,23 Гбайт (74%)
Заголовок : Rip by Dimok
Библиотека кодирования : x264 core 130 r2273 b3065e6
Настройки программы : cabac=1 / ref=4 / deblock=1:0:0 / analyse=0x3:0x133 / me=umh / subme=11 / psy=1 / psy_rd=1.00:0.50 / mixed_ref=1 / me_range=32 / chroma_me=1 / trellis=2 / 8x8dct=1 / cqm=0 / deadzone=21,11 / fast_pskip=0 / chroma_qp_offset=-2 / threads=12 / lookahead_threads=1 / sliced_threads=0 / slices=1 / nr=0 / decimate=0 / interlaced=0 / bluray_compat=0 / constrained_intra=0 / bframes=3 / b_pyramid=2 / b_adapt=2 / b_bias=0 / direct=3 / weightb=1 / open_gop=0 / weightp=2 / keyint=240 / keyint_min=24 / scenecut=40 / intra_refresh=0 / rc_lookahead=72 / rc=2pass / mbtree=1 / bitrate=6077 / ratetol=1.0 / qcomp=0.61 / qpmin=1 / qpmax=69 / qpstep=4 / cplxblur=20.0 / qblur=0.5 / ip_ratio=1.40 / aq=2:0.80
Язык : English
Default : Да
Forced : Нет

Аудио #1
Идентификатор : 2
Формат : AC-3
Формат/Информация : Audio Coding 3
Расширение режима : CM (complete main)
Параметр Endianness формата : Big
Идентификатор кодека : A_AC3
Продолжительность : 1 ч. 18 м.
Вид битрейта : Постоянный
Битрейт : 640 Кбит/сек
Каналы : 6 каналов
Расположение каналов : Front: L C R, Side: L R, LFE
Частота : 48,0 КГц
Битовая глубина : 16 бит
Метод сжатия : С потерями
Размер потока : 358 Мбайт (8%)
Заголовок : Дубляж
Язык : Russian
Default : Да
Forced : Нет

Аудио #2
Идентификатор : 3
Формат : AC-3
Формат/Информация : Audio Coding 3
Расширение режима : CM (complete main)
Параметр Endianness формата : Big
Идентификатор кодека : A_AC3
Продолжительность : 1 ч. 18 м.
Вид битрейта : Постоянный
Битрейт : 640 Кбит/сек
Каналы : 6 каналов
Расположение каналов : Front: L C R, Side: L R, LFE
Частота : 48,0 КГц
Битовая глубина : 16 бит
Метод сжатия : С потерями
Размер потока : 358 Мбайт (8%)
Заголовок : Original
Язык : French
Default : Нет
Forced : Нет

Аудио #3
Идентификатор : 4
Формат : AC-3
Формат/Информация : Audio Coding 3
Расширение режима : CM (complete main)
Параметр Endianness формата : Big
Идентификатор кодека : A_AC3
Продолжительность : 1 ч. 18 м.
Вид битрейта : Постоянный
Битрейт : 640 Кбит/сек
Каналы : 6 каналов
Расположение каналов : Front: L C R, Side: L R, LFE
Частота : 48,0 КГц
Битовая глубина : 16 бит
Метод сжатия : С потерями
Размер потока : 358 Мбайт (8%)
Заголовок : English
Язык : English
Default : Нет
Forced : Нет

Текст #1
Идентификатор : 5
Формат : UTF-8
Идентификатор кодека : S_TEXT/UTF8
Идентификатор кодека/Информация : UTF-8 Plain Text
Заголовок : RUS
Язык : Russian
Default : Да
Forced : Нет

Текст #2
Идентификатор : 6
Формат : UTF-8
Идентификатор кодека : S_TEXT/UTF8
Идентификатор кодека/Информация : UTF-8 Plain Text
Заголовок : ENG
Язык : English
Default : Нет
Forced : Нет

Меню
00:00:00.000 : en:00:00:00.000
00:07:38.776 : en:00:07:38.776
00:13:21.368 : en:00:13:21.368
00:22:27.581 : en:00:22:27.581
00:31:04.931 : en:00:31:04.931
00:38:22.326 : en:00:38:22.326
00:46:44.494 : en:00:46:44.494
00:53:51.254 : en:00:53:51.254
01:00:21.602 : en:01:00:21.602
01:05:52.892 : en:01:05:52.892
[/spoiler][/spoiler][/spoiler]



   Похожие торренты   Торрент   Размер 
В этой теме нет новых непрочитанных сообщений. Астерикс против Цезаря / Asterix vs. Caesar / Asterix et la surprise de Cesar (1985) BDRip от HQCLUB

45 | 8

1.45 ГБ

В этой теме нет новых непрочитанных сообщений. Астерикс против Цезаря / Asterix Versus Caesar / Asterix et la surprise de Cesar (1985) BDRip-AVC от Leonardo and Scarabey

84 | 15

1.46 ГБ

В этой теме нет новых непрочитанных сообщений. Астерикс против Цезаря / Asterix Versus Caesar / Asterix et la surprise de Cesar (1985) BDRip 720p от Leonardo and Scarabey

8 | 12

7.09 ГБ

В этой теме нет новых непрочитанных сообщений. Астерикс против Цезаря / Asterix et la surprise de Cesar (1985) BDRip 1080p

2 | 5

2.05 ГБ

В этой теме нет новых непрочитанных сообщений. Астерикс: Земля Богов / Astérix: Le domaine des dieux / Asterix: The Mansions of the Gods (2014) BDRip 1080p от Ash61 | 3D-Video | halfOU

148 | 10

4.12 ГБ

В этой теме нет новых непрочитанных сообщений. Астерикс и викинги / Asterix and the Vikings / Asterix et les Vikings (2006) BDRip от HQ-ViDEO

1 | 2

1.45 ГБ

В этой теме нет новых непрочитанных сообщений. Астерикс против Цезаря / Asterix Versus Caesar (1985) BDRip-AVC от New-Team | D

55 | 19

744.57 МБ




Вы не можете начинать темы
Вы не можете отвечать на сообщения
Вы не можете редактировать свои сообщения
Вы не можете удалять свои сообщения
Вы не можете добавлять вложения

Перейти:  
Для Мосгорсуда, Роскомнадзора и рекламодателей: mosgorsud-torrent[собачка]yandex.ru
 Вход
ppkBB3cker v.2 © 2008-2014 @ PPK
[ Time : 0.056s | 15 Queries | GZIP : Off ]

cron