img image001 image001 image001 image001 image001 image001 image001 image001 image001 image001 image001 image001 image001 image001 image001

Planets Sun Sun Sun
Статистика раздачи
Автор: Снежана | Размер: 5.55 ГБ | Добавлен: 27 июл 2013
Раздают: 192    Качают: 11
Скачать торрент
Скачать торрент
Описание торрента

СообщениеДобавлено: 27 июл 2013 

#77

Информация о фильме
Название: Веселые рыбки / Гуппи и пузырьки
Оригинальное название: Bubble Guppies
Год выхода: 2011
Жанр: мультфильм
Режиссер: Mark Salisbury, Jeff Astolfo, Дэнис Морелла
В ролях: Brianna Gentilella, Кристофер Борджер, Селена Гонзалез, Тино Инсана, Скай Джексон, Имон Пирруччелло, Анджелина Уолер, Захари Гордан, Джелани Имани, Рейна Шаскан

О фильме:
Добро пожаловать в красочный подводный мир, где много водорослей и фантастических коралловых рифов! Любознательные малыши-рыбки каждый день открывают много нового и помогают маленьким телезрителям получить необходимые знания, чтобы подготовиться к походу в школу.
01 - Вызывайте море-помощь (Call a Clambulance!)
02 - Мелковая Гонка! (The Crayon Prix!)
03 - Щенок Пузырек! (Bubble Puppy!)
04 - Построй Мне Здание! (Build Me a Building!)
05 Утки Стройся! (Ducks in a Row!)
06 - Особые Для Сердитого! (The Grumpfish Special!)
07 - Лунный Камень (The Moon Rocks!)
08 - Кто Сыграет Серого Волка? (Who's Gonna Play the Big Bad Wolf?)
09 - Зажги Меня Рок! (We Totally Rock! )
10 - Рыбкобол! ( Fishketball!)
11- Легенда о Розовоноге (The Legend of Pinkfoot)
12- Вверх, вверх, под облака! (Gup Gup and Away)
13 - День Весенней Курочки! (The Spring Chicken is Coming!)
14 – Новая знакомая! (Boy Meets Squirrel)
15 - Коровушка! (Have A Cow!)
16 - Вечеринка В Честь Дня Креветки! (Super Shrimptennial Celebration)
17 - День Моллюсков! (Happy Clam Day!)
18 - А Ну Ка Раскопай (Can You Dig It)
19 - Буль Буль Хрумы (Bubble Bites!)
20 - Вечеринка В Доме С Приведеньями! (Haunted House Party!)


Официальный сайт

Страна: США, Канада
Студия: Wildbrain, Nickelodeon Animation Studios
Продолжительность: ~ по 20 мин. серия
Перевод: Профессиональный (полное дублирование)

Файл
Кодек: XviD /MP3
Качество: SATRip
Видео: XviD, 640*480 (4:3), 25 fps, ~1600 Kbps, 0.208 bit/pixel
Звук: MP3, 2 ch, 48.0 KHz, 128 Kbps

General
Complete name : /media/Гуппи и Пузырики Bubble Guppies 2011 SATRip/s1e01 - Call a Clambulance!.avi
Format : AVI
Format/Info : Audio Video Interleave
File size : 283 MiB
Duration : 22mn 48s
Overall bit rate : 1 734 Kbps
Writing library : VirtualDub build 13870/release

Video
ID : 0
Format : MPEG-4 Visual
Format profile : Advanced Simple@L5
Format settings, BVOP : 2
Format settings, QPel : No
Format settings, GMC : No warppoints
Format settings, Matrix : Default (H.263)
Muxing mode : Packed bitstream
Codec ID : XVID
Codec ID/Hint : XviD
Duration : 22mn 48s
Bit rate : 1 597 Kbps
Width : 640 pixels
Height : 480 pixels
Display aspect ratio : 4:3
Frame rate : 25.000 fps
Color space : YUV
Chroma subsampling : 4:2:0
Bit depth : 8 bits
Scan type : Progressive
Compression mode : Lossy
Bits/(Pixel*Frame) : 0.208
Stream size : 261 MiB (92%)
Writing library : XviD 1.2.1 (UTC 2008-12-04)

Audio
ID : 1
Format : MPEG Audio
Format version : Version 1
Format profile : Layer 3
Mode : Joint stereo
Mode extension : MS Stereo
Codec ID : 55
Codec ID/Hint : MP3
Duration : 22mn 48s
Bit rate mode : Constant
Bit rate : 128 Kbps
Channel(s) : 2 channels
Sampling rate : 48.0 KHz
Compression mode : Lossy
Stream size : 20.9 MiB (7%)
Alignment : Split accross interleaves
Interleave, duration : 40 ms (1.00 video frame)
Interleave, preload duration : 463 ms



   Похожие торренты   Торрент   Размер 
В этой теме нет новых непрочитанных сообщений. Веселые рыбки / Гуппи и пузырьки / Bubble Guppies [03x01-04] (2013) SATRip | D

272 | 81

1.16 ГБ

В этой теме нет новых непрочитанных сообщений. Малина красная: Веселые ребята (2011) SATRip

1 | 94

427.06 МБ

В этой теме нет новых непрочитанных сообщений. Пузырьки (1975) VHSRip

3 | 3

701.06 МБ

В этой теме нет новых непрочитанных сообщений. Три веселые смены (1977) SATRip

88 | 5

2.04 ГБ

В этой теме нет новых непрочитанных сообщений. Весёлые звёзды (1954) SATRip от New-Team

21 | 8

744.03 МБ

В этой теме нет новых непрочитанных сообщений. Весёлые звёзды (1954) SATRip-AVC от New-Team

95 | 3

1.46 ГБ

В этой теме нет новых непрочитанных сообщений. Весёлые звёзды (1954) SATRip от New-Team

53 | 4

1.46 ГБ




Вы не можете начинать темы
Вы не можете отвечать на сообщения
Вы не можете редактировать свои сообщения
Вы не можете удалять свои сообщения
Вы не можете добавлять вложения

Перейти:  
Для Мосгорсуда, Роскомнадзора и рекламодателей: mosgorsud-torrent[собачка]yandex.ru
 Вход
ppkBB3cker v.2 © 2008-2014 @ PPK
[ Time : 0.049s | 14 Queries | GZIP : On ]

Торрент трекер RUTOR.IN, Не можете зайти на rutor.org? Какой новый адрес рутор? Какое зеркало рутор? Не работает rutor.org и зеркала? Тогда наш торрент специально для вас. Rutor.in неофициальное зеркало rutor. В случае если у Вас заблокирован rutor или вдруг Вы не можете на него зайти, то Вы без труда сможете скачать бесплатно и без рекламы последние новинки кино, игр, сериалов и прочего у нас, на Rutor.in. Не нужно использовать прокси, чтобы зайти на рутор, достаточно воспользоваться нашим ресурсом. Все новые фильмы, игры, сериалы, книги и музыка за 2013 и 2014 годы через торрент бесплатно. Скачивайте фильмы в хорошем качестве, игры для пк, xbox, playstation без регистрации. У нас вы найдете новые Зарубежные сериалы и Русские сериалы 2013, 2014, 2015 годов. Оставайтесь с нами, качайте любимые фильмы, игры, сериалы, книги и музыку.