img image001 image001 image001 image001 image001 image001 image001 image001 image001 image001 image001 image001 image001 image001 image001

Planets Sun Sun Sun
Статистика раздачи
Автор: Снежана | Размер: 7.97 ГБ | Добавлен: 27 июл 2013
Раздают: 555    Качают: 52
Скачать торрент
Скачать торрент
Описание торрента

СообщениеДобавлено: 27 июл 2013 

#77

Информация о фильме
Название: Команда Умизуми
Оригинальное название: Team Umizoomi
Год выхода: 2010
Жанр: мультфильм, семейный
Режиссер: Стивен Коннер / Steven Conner, Мэтт Шеридан / Matt Sheridan
В ролях: Этан Кемпнер, Донован Паттон, П.Т. Уолкли, Софи Фокс, Линда Бек, Оливия Арчер, Даниэль Котч, Кайл Девон Бенитез, Джейн Дженнаро

О фильме:
Девочка Милли, её брат Гео и их лучший друг робот — это не просто ведущие обучающей программы, это мини-команда супергероев, которые используют свои могучие математические способности для решения сложных проблем, с которыми юные зрители могут столкнуться в реальной жизни.

Под аккомпанемент веселой, запоминающейся музыки в стиле «дошкольный поп-рок», команда «Умизуми» совершает прогулку по ярко-красочному городу Уми — Сити, преодолевая всевозможные препятствия с помощью своего «фирменного метода» под названием «Смелая математика» Для наших героев нет ничего невозможного!
1 сезон
01. Фестиваль бумажных змеев (The Kite Festival)
02. Аквариум (The Aquarium Fix-It)
03. Карнавал (Carnival)
04. Пикник (Picnic)
05. Супер поход в Супермаркет (Super Trip to the Supermarket)
06. Герои метро (Subway Heroes)
07. Молоко (The Milk Out)
08. Музей динозавров (The Dinosaur Museum Mishap)
09. Игрушечный парад (The Rolling Toy Parade)
10. Специальна доставка (Special Delivery)
11. Самолёт Энди (Ready for Take-Off)
12. Грузовик мороженого (Ice Cream Truck)
13. Шоу игрушечных поездов дикого запада (The Wild West Toy Train Show)
14. Концерт танцующей бабочки (The Butterfly Dance Show)
15. Слонёнок - фантан (The Elephant Sprinkler)
16. Герои детской площадки (Playground Heroes)
17. Книжка для Оливии (Special Delivery)
18. Ракушки (Favorite Things Show)
19. Большие лодочные гонки (The Big Boat Race)

2 сезон
01. Гонка вокруг Уми сити (Race Around Umi City)
07. День в музее (Day at the Museum)
10. Сумасшедшие Ролики (Crazy Skates)
11. Милли спасает положение (Milli Saves the Day)
12. Пожарный умимобиль (Umi Fire Truck)

Официальный сайт

Страна: США
Студия: Curious Pictures, Nickelodeon Productions
Продолжительность: ~25 минут серия
Перевод: Профессиональный (дублированный)

Файл
Кодек: XvID / MP3
Качество: SATRip
Видео: Xvid, 640x480 (4:3), 25.00 fps, ~1900Kbps
Звук: МР3 44Hz 2ch stereo 128kbps

General
Complete name : umizumiКнижка для Оливии (Special Delivery).avi
Format : AVI
Format/Info : Audio Video Interleave
File size : 344 MiB
Duration : 22mn 56s
Overall bit rate : 2 097 Kbps
Writing library : TMPGEnc 4.0 XPress Version. 4.7.7.307

Video
ID : 0
Format : MPEG-4 Visual
Format profile : Advanced Simple@L5
Format settings, BVOP : Yes
Format settings, QPel : No
Format settings, GMC : No warppoints
Format settings, Matrix : Default (MPEG)
Muxing mode : Packed bitstream
Codec ID : XVID
Codec ID/Hint : XviD
Duration : 22mn 56s
Bit rate : 1 898 Kbps
Width : 640 pixels
Height : 480 pixels
Display aspect ratio : 4:3
Frame rate : 25.000 fps
Color space : YUV
Chroma subsampling : 4:2:0
Bit depth : 8 bits
Scan type : Progressive
Compression mode : Lossy
Bits/(Pixel*Frame) : 0.247
Stream size : 311 MiB (90%)
Writing library : XviD 1.2.1 (UTC 2008-12-04)

Audio
ID : 1
Format : MPEG Audio
Format version : Version 1
Format profile : Layer 3
Mode : Joint stereo
Codec ID : 55
Codec ID/Hint : MP3
Duration : 22mn 56s
Bit rate mode : Constant
Bit rate : 192 Kbps
Channel(s) : 2 channels
Sampling rate : 48.0 KHz
Compression mode : Lossy
Stream size : 31.5 MiB (9%)
Alignment : Aligned on interleaves
Interleave, duration : 250 ms (6.25 video frames)
Interleave, preload duration : 216 ms



   Похожие торренты   Торрент   Размер 
В этой теме нет новых непрочитанных сообщений. Хоккей. КХЛ 2010/11. Матч всех звёзд КХЛ 2011: Команда Яшина - Команда Ягра (2011) SATRip

0 | 2

1.46 ГБ

В этой теме нет новых непрочитанных сообщений. OST - Команда «А» / The A-Team (2010) MP3

2 | 4

167.16 МБ

В этой теме нет новых непрочитанных сообщений. Команда «А» / The A-Team (2010) BDRip-AVC | D, P, A, L1

41 | 6

4.08 ГБ

В этой теме нет новых непрочитанных сообщений. Команда «А» / The A-Team (2010) BDRemux | Extended Сut

3 | 5

26.92 ГБ

В этой теме нет новых непрочитанных сообщений. Команда «А» / The A-Team (2010) DVD9 | Лицензия

1 | 2

5.77 ГБ

В этой теме нет новых непрочитанных сообщений. Команда «А» / The A-Team (2010) DVDRip | Лицензия

49 | 4

1.37 ГБ

В этой теме нет новых непрочитанных сообщений. Команда «А» / The A-Team (2010) DVDRip-AVC от SMALL-RiP

1 | 2

1.45 ГБ




Вы не можете начинать темы
Вы не можете отвечать на сообщения
Вы не можете редактировать свои сообщения
Вы не можете удалять свои сообщения
Вы не можете добавлять вложения

Перейти:  
Для Мосгорсуда, Роскомнадзора и рекламодателей: mosgorsud-torrent[собачка]yandex.ru
 Вход
ppkBB3cker v.2 © 2008-2014 @ PPK
[ Time : 1.591s | 15 Queries | GZIP : Off ]

Торрент трекер RUTOR.IN, Не можете зайти на rutor.org? Какой новый адрес рутор? Какое зеркало рутор? Не работает rutor.org и зеркала? Тогда наш торрент специально для вас. Rutor.in неофициальное зеркало rutor. В случае если у Вас заблокирован rutor или вдруг Вы не можете на него зайти, то Вы без труда сможете скачать бесплатно и без рекламы последние новинки кино, игр, сериалов и прочего у нас, на Rutor.in. Не нужно использовать прокси, чтобы зайти на рутор, достаточно воспользоваться нашим ресурсом. Все новые фильмы, игры, сериалы, книги и музыка за 2013 и 2014 годы через торрент бесплатно. Скачивайте фильмы в хорошем качестве, игры для пк, xbox, playstation без регистрации. У нас вы найдете новые Зарубежные сериалы и Русские сериалы 2013, 2014, 2015 годов. Оставайтесь с нами, качайте любимые фильмы, игры, сериалы, книги и музыку.