img image001 image001 image001 image001 image001 image001 image001 image001 image001 image001 image001 image001 image001 image001 image001

Planets Sun Sun Sun
Статистика раздачи
Автор: Снежана | Размер: 4.36 ГБ | Добавлен: 27 июл 2013
Раздают: 17    Качают: 7
Скачать торрент
Скачать торрент
Описание торрента

СообщениеДобавлено: 27 июл 2013 

Горбун из Нотр Дама

The Hunchback of Notre Dame



#77
Год выпуска: 1996
Страны: США / Walt Disney Pictures
Жанры: мультфильм, мюзикл, драма, мелодрама, семейный
Продолжительность: 01:30:58
Режиссер: Гари Труздейл, Кирк Уайз
Перевод: Дубляж + Профессиональный + авторский + Оригинал

В ролях:
Джейсон Александр, Мэри Кэй Бергман, Кори Бертон, Джим Каммингс, Билл Фагербакк, Том Халс, Тони Джей, Пол Кандел, Чарльз Кимбро, Кевин Клайн, Хайди Молленхауер, Деми Мур, Патрик Пинни, Гари Труздейл, Дэвид Огден Стайерз, Фрэнк Уэлкер, Мэри Уикс, Джейн Уизерс, Джек Эйнджел, Джоан Барбер, Скотт Барнс, Боб Берген, Сьюзэн Блу, Морин Бреннан, Роджер Бампасс, Виктория Кларк, Филип Л. Кларк, Дженнифер Дарлинг, Деби Дерриберри, Джонатан Докучиц, Билл Фармер, Лори Фасо, Мервин Фоард, Дэна Хилл, Джуди Кэй, Эдди Корбич, Аликс Кори, Майкл Линдсэй, Шерри Линн, Мона Маршалл, Говард МакДжиллин, Микки Макгоун, Анна МакНили, Брюс Мур, Денис Пикеринг, Филип Проктор, Жан Рэбсон, Питер Сэмюэл, Кэт Сауси, Гордон Стэнли, Мэри Стаут, Марсело Тьюберт

Описание:
Сын убитой цыганки, Квазимодо, что в переводе означает "чудовище", знаменитый горбун Собора Парижской Богоматери, - персонаж одноименного романа Виктора Гюго и герой этого замечательного мультипликационного фильма с множеством хороших песен и музыки. Жестокий судья убил его мать и воспитал в уверенности, что именно он и есть благодетель добросердечного уродца, но в детских фильмах зло обязательно должно быть побеждено, и этому помогают красивая и бесстрашная цыганка Эсмеральда и новый начальник стражи, честный и простодушный капитан Фибис.



Качество: BDRip 1080p (источник: Blu-ray Disc)
Формат: MKV
Видео кодек: H.264 (AVC)
Аудио кодек: AC3
Видео: 1920x1080, 5607 Kbps, 23,976 fps
Звук: 48 kHz, AC3, 2c, 192 kbps Дубляж
Звук: 48 kHz, AC3, 6c, 448 kbps Профессиональный Многоголосый закадровый
Звук: 48 kHz, AC3, 6c, 640 kbps Оригинал
Субтитры: Русские, Английские
Отдельно:
Звук: 48 kHz, AC3, 2c, 192 kbpsАвторский одноголосый (Санаев)
Звук: 48 kHz, AC3, 6c, 640 kbpsАвторский одноголосый (Гланц)



Общее
Формат : Matroska
Версия формата : Version 4 / Version 2
Размер файла : 4,36 Гбайт
Продолжительность : 1 ч. 30 м.
Общий поток : 6869 Кбит/сек
Дата кодирования : UTC 2013-03-20 07:24:24
Программа кодирования : mkvmerge v6.1.0 ('Old Devil') built on Mar 2 2013 14:32:37
Библиотека кодирования : libebml v1.3.0 + libmatroska v1.4.0

Видео
Идентификатор : 1
Формат : AVC
Формат/Информация : Advanced Video Codec
Профиль формата : High@L4.1
Параметр CABAC формата : Да
Параметр ReFrames формата : 4 кадра
Идентификатор кодека : V_MPEG4/ISO/AVC
Продолжительность : 1 ч. 30 м.
Битрейт : 5607 Кбит/сек
Ширина : 1920 пикселей
Высота : 1080 пикселей
Соотношение сторон : 16:9
Режим частоты кадров : Постоянный
Частота кадров : 23,976 кадра/сек
Цветовое пространство : YUV
Субдискретизация насыщенности : 4:2:0
Битовая глубина : 8 бит
Тип развёртки : Прогрессивная
Бит/(Пиксели*Кадры) : 0.113
Размер потока : 3,46 Гбайт (79%)
Заголовок : Rip by Dimok
Библиотека кодирования : x264 core 130 r2273 b3065e6
Настройки программы : cabac=1 / ref=4 / deblock=1:0:0 / analyse=0x3:0x133 / me=umh / subme=11 / psy=1 / psy_rd=1.00:0.50 / mixed_ref=1 / me_range=32 / chroma_me=1 / trellis=2 / 8x8dct=1 / cqm=0 / deadzone=21,11 / fast_pskip=0 / chroma_qp_offset=-2 / threads=12 / lookahead_threads=1 / sliced_threads=0 / slices=1 / nr=0 / decimate=0 / interlaced=0 / bluray_compat=0 / constrained_intra=0 / bframes=3 / b_pyramid=2 / b_adapt=2 / b_bias=0 / direct=3 / weightb=1 / open_gop=0 / weightp=2 / keyint=240 / keyint_min=23 / scenecut=40 / intra_refresh=0 / rc_lookahead=70 / rc=2pass / mbtree=1 / bitrate=5607 / ratetol=1.0 / qcomp=0.61 / qpmin=1 / qpmax=69 / qpstep=4 / cplxblur=20.0 / qblur=0.5 / ip_ratio=1.40 / aq=2:0.70
Язык : English
Default : Да
Forced : Нет

Аудио #1
Идентификатор : 2
Формат : AC-3
Формат/Информация : Audio Coding 3
Расширение режима : CM (complete main)
Параметр Endianness формата : Big
Идентификатор кодека : A_AC3
Продолжительность : 1 ч. 30 м.
Вид битрейта : Постоянный
Битрейт : 192 Кбит/сек
Каналы : 2 канала
Расположение каналов : Front: L R
Частота : 48,0 КГц
Битовая глубина : 16 бит
Метод сжатия : С потерями
Размер потока : 125 Мбайт (3%)
Заголовок : Дубляж
Язык : Russian
Default : Да
Forced : Нет

Аудио #2
Идентификатор : 3
Формат : AC-3
Формат/Информация : Audio Coding 3
Расширение режима : CM (complete main)
Параметр Endianness формата : Big
Идентификатор кодека : A_AC3
Продолжительность : 1 ч. 30 м.
Вид битрейта : Постоянный
Битрейт : 448 Кбит/сек
Каналы : 6 каналов
Расположение каналов : Front: L C R, Side: L R, LFE
Частота : 48,0 КГц
Битовая глубина : 16 бит
Метод сжатия : С потерями
Размер потока : 292 Мбайт (7%)
Заголовок : закадровый (многоголосый)
Язык : Russian
Default : Нет
Forced : Нет

Аудио #3
Идентификатор : 4
Формат : AC-3
Формат/Информация : Audio Coding 3
Расширение режима : CM (complete main)
Параметр Endianness формата : Big
Идентификатор кодека : A_AC3
Продолжительность : 1 ч. 30 м.
Вид битрейта : Постоянный
Битрейт : 640 Кбит/сек
Каналы : 6 каналов
Расположение каналов : Front: L C R, Side: L R, LFE
Частота : 48,0 КГц
Битовая глубина : 16 бит
Метод сжатия : С потерями
Размер потока : 416 Мбайт (9%)
Заголовок : Original
Язык : English
Default : Нет
Forced : Нет

Текст #1
Идентификатор : 5
Формат : UTF-8
Идентификатор кодека : S_TEXT/UTF8
Идентификатор кодека/Информация : UTF-8 Plain Text
Язык : Russian
Default : Да
Forced : Нет

Текст #2
Идентификатор : 6
Формат : UTF-8
Идентификатор кодека : S_TEXT/UTF8
Идентификатор кодека/Информация : UTF-8 Plain Text
Язык : English
Default : Нет
Forced : Нет

Текст #3
Идентификатор : 7
Формат : UTF-8
Идентификатор кодека : S_TEXT/UTF8
Идентификатор кодека/Информация : UTF-8 Plain Text
Язык : English
Default : Нет
Forced : Нет

Текст #4
Идентификатор : 8
Формат : UTF-8
Идентификатор кодека : S_TEXT/UTF8
Идентификатор кодека/Информация : UTF-8 Plain Text
Язык : Portuguese
Default : Нет
Forced : Нет

Меню
00:00:00.000 : en:00:00:00.000
00:06:27.554 : en:00:06:27.554
00:10:30.672 : en:00:10:30.672
00:12:04.390 : en:00:12:04.390
00:13:45.658 : en:00:13:45.658
00:16:38.289 : en:00:16:38.289
00:20:48.497 : en:00:20:48.497
00:26:07.316 : en:00:26:07.316
00:27:26.436 : en:00:27:26.436
00:31:27.928 : en:00:31:27.928
00:34:00.205 : en:00:34:00.205
00:35:35.675 : en:00:35:35.675
00:38:34.270 : en:00:38:34.270
00:42:17.160 : en:00:42:17.160
00:44:41.512 : en:00:44:41.512
00:45:33.648 : en:00:45:33.648
00:47:52.161 : en:00:47:52.161
00:52:47.164 : en:00:52:47.164
00:56:11.410 : en:00:56:11.410
00:59:11.047 : en:00:59:11.047
01:01:39.988 : en:01:01:39.988
01:07:44.143 : en:01:07:44.143
01:11:24.363 : en:01:11:24.363
01:13:00.084 : en:01:13:00.084
01:14:31.676 : en:01:14:31.676
01:17:51.750 : en:01:17:51.750
01:18:52.603 : en:01:18:52.603
01:20:06.510 : en:01:20:06.510
01:21:50.531 : en:01:21:50.531
01:25:00.554 : en:01:25:00.554
x264 [info]: frame I:1542 Avg QP:15.18 size:193519
x264 [info]: frame P:44886 Avg QP:18.87 size: 54781
x264 [info]: frame B:84231 Avg QP:19.54 size: 12624



   Похожие торренты   Торрент   Размер 
В этой теме нет новых непрочитанных сообщений. Горбун из Нотр Дама / The Hunchback of Notre Dame (1996) BDRip 1080p от Youtracker

3 | 7

7.47 ГБ

В этой теме нет новых непрочитанных сообщений. Горбун из Нотр Дама I - II / The Hunchback of Notre Dame I - II (1996) (2002) BDRip 1080p от FREEISLAND

13 | 9

8.75 ГБ

В этой теме нет новых непрочитанных сообщений. Горбун из Нотр Дама / The Hunchback of Notre Dame (1996) BDRemux 1080p от HDTracker

0 | 44

24.4 ГБ

В этой теме нет новых непрочитанных сообщений. Горбун из Нотр Дама / The Hunchback of Notre Dame (1996) BDRip-AVC | iPad

12 | 4

1.29 ГБ

В этой теме нет новых непрочитанных сообщений. Горбун из Нотр Дама / The Hunchback of Notre Dame (1996) BDRip от HQCLUB

172 | 7

1.46 ГБ

В этой теме нет новых непрочитанных сообщений. Горбун из Нотр Дама / The Hunchback of Notre Dame (1996) BDRip-AVC от 0ptimus | D, P2, A

23 | 9

2 ГБ

В этой теме нет новых непрочитанных сообщений. Горбун из Нотр Дама / The Hunchback of Notre Dame (1996) HDTVRip

15 | 3

742.81 МБ




Вы не можете начинать темы
Вы не можете отвечать на сообщения
Вы не можете редактировать свои сообщения
Вы не можете удалять свои сообщения
Вы не можете добавлять вложения

Перейти:  
Для Мосгорсуда, Роскомнадзора и рекламодателей: mosgorsud-torrent[собачка]yandex.ru
 Вход
ppkBB3cker v.2 © 2008-2014 @ PPK
[ Time : 0.019s | 16 Queries | GZIP : Off ]

Торрент трекер RUTOR.IN, Не можете зайти на rutor.org? Какой новый адрес рутор? Какое зеркало рутор? Не работает rutor.org и зеркала? Тогда наш торрент специально для вас. Rutor.in неофициальное зеркало rutor. В случае если у Вас заблокирован rutor или вдруг Вы не можете на него зайти, то Вы без труда сможете скачать бесплатно и без рекламы последние новинки кино, игр, сериалов и прочего у нас, на Rutor.in. Не нужно использовать прокси, чтобы зайти на рутор, достаточно воспользоваться нашим ресурсом. Все новые фильмы, игры, сериалы, книги и музыка за 2013 и 2014 годы через торрент бесплатно. Скачивайте фильмы в хорошем качестве, игры для пк, xbox, playstation без регистрации. У нас вы найдете новые Зарубежные сериалы и Русские сериалы 2013, 2014, 2015 годов. Оставайтесь с нами, качайте любимые фильмы, игры, сериалы, книги и музыку.
cron