img image001 image001 image001 image001 image001 image001 image001 image001 image001 image001 image001 image001 image001 image001 image001

Planets Sun Sun Sun
Статистика раздачи
Автор: Снежана | Размер: 745.16 МБ | Добавлен: 27 июл 2013
Раздают: 46    Качают: 9
Скачать торрент
Скачать торрент
Описание торрента

СообщениеДобавлено: 27 июл 2013 

«Naughty, nice. You better believe.»



#77

Год выпуска: 2012
Страна: США, DreamWorks Animation
Жанр: мультфильм, фэнтези, приключения, семейный
Продолжительность: 01:37:11

Перевод: Профессиональный (дублированный)
Cубтитры: нет
Оригинальная аудиодорожка: нет

Режиссер: Питер Рэмси / Peter Ramsey

В ролях: Крис Пайн, Алек Болдуин, Джуд Лоу, Айла Фишер, Хью Джекман, Дакота Гойо, Хамани Гриффин, Камиль МакФедден, Джорджи Грив, Эмили Нордвинд...

Описание: Когда злой дух Кромешник посягает на самое дорогое — детские мечты, Северянин, Ледяной Джек, Кролик, Зубная Фея и Песочный Человек впервые объединяются, чтобы создать команду Хранителей снов…





Исходник: Blu-ray 1080p
Качество: BDRip
Формат: AVI

Видео: 656x368 (16:9), 23.976 fps, XviD ~ 935 kbps avg, 0.161 bit/pixel
Аудио: 48 kHz, МР3 2 ch, 128 kbps, русский

General
Complete name : Hraniteli.snov.2012.D.BDRip.745MB_[Youtracker]_by_avproh.avi
Format : AVI
Format/Info : Audio Video Interleave
File size : 745 MiB
Duration : 1h 37mn
Overall bit rate : 1 072 Kbps
Writing application : VirtualDubModRus 1.5.10.2 (build 2542/release)
Writing library : VirtualDubMod build 2542/release

Video
ID : 0
Format : MPEG-4 Visual
Format profile : Advanced Simple@L5
Format settings, BVOP : 1
Format settings, QPel : No
Format settings, GMC : No warppoints
Format settings, Matrix : Custom
Codec ID : XVID
Codec ID/Hint : XviD
Duration : 1h 37mn
Bit rate : 935 Kbps
Width : 656 pixels
Height : 368 pixels
Display aspect ratio : 16:9
Frame rate : 23.976 fps
Color space : YUV
Chroma subsampling : 4:2:0
Bit depth : 8 bits
Scan type : Progressive
Compression mode : Lossy
Bits/(Pixel*Frame) : 0.161
Stream size : 650 MiB (87%)
Writing library : XviD 65

Audio
ID : 1
Format : MPEG Audio
Format version : Version 1
Format profile : Layer 3
Mode : Joint stereo
Mode extension : MS Stereo
Codec ID : 55
Codec ID/Hint : MP3
Duration : 1h 37mn
Bit rate mode : Constant
Bit rate : 128 Kbps
Channel(s) : 2 channels
Sampling rate : 48.0 KHz
Compression mode : Lossy
Stream size : 89.0 MiB (12%)
Alignment : Aligned on interleaves
Interleave, duration : 42 ms (1.00 video frame)
Interleave, preload duration : 504 ms





   Похожие торренты   Торрент   Размер 
В этой теме нет новых непрочитанных сообщений. Хранители снов / Rise of the Guardians (2012) BDRip от Youtracker | D | лицензия

98 | 8

1.46 ГБ

В этой теме нет новых непрочитанных сообщений. Хранители снов / Rise of the Guardians (2012) BDRip от Youtracker | D | лицензия

28 | 6

2.18 ГБ

В этой теме нет новых непрочитанных сообщений. Хранители снов / Rise of the Guardians (2012) BDRip-AVC от Youtracker | D | лицензия

113 | 7

2.18 ГБ

В этой теме нет новых непрочитанных сообщений. Хранители снов / Rise of the Guardians (2012) BDRip 1080p от Youtracker | 3D-Video | Лицензия

22 | 7

11.48 ГБ

В этой теме нет новых непрочитанных сообщений. Хранители снов / Rise of the Guardians (2012) DVD5 от Youtracker | D | сжатый | лицензия

5 | 3

4.37 ГБ

В этой теме нет новых непрочитанных сообщений. Хранители снов / Rise of the Guardians (2012) DVD9 R5 от Youtracker | D

4 | 3

6.57 ГБ

В этой теме нет новых непрочитанных сообщений. Хранители снов / Rise of the Guardians (2012) BDRip 1080p | Лицензия

38 | 5

13.49 ГБ




Вы не можете начинать темы
Вы не можете отвечать на сообщения
Вы не можете редактировать свои сообщения
Вы не можете удалять свои сообщения
Вы не можете добавлять вложения

Перейти:  
Для Мосгорсуда, Роскомнадзора и рекламодателей: mosgorsud-torrent[собачка]yandex.ru
 Вход
ppkBB3cker v.2 © 2008-2014 @ PPK
[ Time : 0.520s | 15 Queries | GZIP : Off ]

Торрент трекер RUTOR.IN, Не можете зайти на rutor.org? Какой новый адрес рутор? Какое зеркало рутор? Не работает rutor.org и зеркала? Тогда наш торрент специально для вас. Rutor.in неофициальное зеркало rutor. В случае если у Вас заблокирован rutor или вдруг Вы не можете на него зайти, то Вы без труда сможете скачать бесплатно и без рекламы последние новинки кино, игр, сериалов и прочего у нас, на Rutor.in. Не нужно использовать прокси, чтобы зайти на рутор, достаточно воспользоваться нашим ресурсом. Все новые фильмы, игры, сериалы, книги и музыка за 2013 и 2014 годы через торрент бесплатно. Скачивайте фильмы в хорошем качестве, игры для пк, xbox, playstation без регистрации. У нас вы найдете новые Зарубежные сериалы и Русские сериалы 2013, 2014, 2015 годов. Оставайтесь с нами, качайте любимые фильмы, игры, сериалы, книги и музыку.
cron