img image001 image001 image001 image001 image001 image001 image001 image001 image001 image001 image001 image001 image001 image001 image001

Planets Sun Sun Sun
Статистика раздачи
Автор: Снежана | Размер: 2.18 ГБ | Добавлен: 27 июл 2013
Раздают: 113    Качают: 7
Скачать торрент
Скачать торрент
Описание торрента

СообщениеДобавлено: 27 июл 2013 

«Naughty, nice. You better believe.»



#77

Год выпуска: 2012
Страна: США, DreamWorks Animation
Жанр: мультфильм, фэнтези, приключения, семейный
Продолжительность: 01:37:11

Перевод: Профессиональный (дублированный)
Cубтитры: русский, английский
Оригинальная аудиодорожка: английский

Режиссер: Питер Рэмси / Peter Ramsey

В ролях: Крис Пайн, Алек Болдуин, Джуд Лоу, Айла Фишер, Хью Джекман, Дакота Гойо, Хамани Гриффин, Камиль МакФедден, Джорджи Грив, Эмили Нордвинд...

Описание: Когда злой дух Кромешник посягает на самое дорогое — детские мечты, Северянин, Ледяной Джек, Кролик, Зубная Фея и Песочный Человек впервые объединяются, чтобы создать команду Хранителей снов…





Исходник: Blu-ray 1080p
Качество: BDRip-AVC
Формат: MKV

Видео: 1024x576 (16:9), 23.976 fps, H264 ~ 2314 kbps avg, 0.164 bit/pixel
Аудио 1: 48 kHz, AC3 6 ch, 448 kbps, русский
Аудио 2: 48 kHz, AC3 6 ch, 448 kbps, английский
Формат субтитров: SoftSub (srt)

General
Complete name : Hraniteli.snov.2012.D.BDRip-AVC_[Youtracker]_by_avproh.mkv
Format : Matroska
Format version : Version 4 / Version 2
File size : 2.18 GiB
Duration : 1h 37mn
Overall bit rate : 3 211 Kbps
Encoded date : UTC 2013-03-21 11:52:31
Writing application : mkvmerge v6.1.0 ('Old Devil') built on Mar 2 2013 14:32:37
Writing library : libebml v1.3.0 + libmatroska v1.4.0

Video
ID : 1
Format : AVC
Format/Info : Advanced Video Codec
Format profile : High@L4.1
Format settings, CABAC : Yes
Format settings, ReFrames : 11 frames
Codec ID : V_MPEG4/ISO/AVC
Duration : 1h 37mn
Bit rate : 2 314 Kbps
Width : 1 024 pixels
Height : 576 pixels
Display aspect ratio : 16:9
Frame rate mode : Constant
Frame rate : 23.976 fps
Color space : YUV
Chroma subsampling : 4:2:0
Bit depth : 8 bits
Scan type : Progressive
Bits/(Pixel*Frame) : 0.164
Stream size : 1.53 GiB (70%)
Writing library : x264 core 119 r2106 07efeb4
Encoding settings : cabac=1 / ref=11 / deblock=1:-2:-1 / analyse=0x3:0x113 / me=umh / subme=9 / psy=1 / psy_rd=1.00:0.10 / mixed_ref=1 / me_range=32 / chroma_me=1 / trellis=2 / 8x8dct=1 / cqm=0 / deadzone=21,11 / fast_pskip=1 / chroma_qp_offset=-3 / threads=9 / sliced_threads=0 / nr=0 / decimate=1 / interlaced=0 / bluray_compat=0 / constrained_intra=0 / bframes=10 / b_pyramid=2 / b_adapt=2 / b_bias=0 / direct=3 / weightb=1 / open_gop=0 / weightp=2 / keyint=240 / keyint_min=23 / scenecut=40 / intra_refresh=0 / rc_lookahead=80 / rc=2pass / mbtree=1 / bitrate=2314 / ratetol=1.0 / qcomp=0.60 / qpmin=0 / qpmax=69 / qpstep=4 / cplxblur=20.0 / qblur=0.5 / ip_ratio=1.40 / aq=2:0.90
Language : English
Default : Yes
Forced : No

Audio #1
ID : 2
Format : AC-3
Format/Info : Audio Coding 3
Mode extension : CM (complete main)
Format settings, Endianness : Big
Codec ID : A_AC3
Duration : 1h 37mn
Bit rate mode : Constant
Bit rate : 448 Kbps
Channel(s) : 6 channels
Channel positions : Front: L C R, Side: L R, LFE
Sampling rate : 48.0 KHz
Bit depth : 16 bits
Compression mode : Lossy
Stream size : 311 MiB (14%)
Language : Russian
Default : Yes
Forced : No

Audio #2
ID : 3
Format : AC-3
Format/Info : Audio Coding 3
Mode extension : CM (complete main)
Format settings, Endianness : Big
Codec ID : A_AC3
Duration : 1h 37mn
Bit rate mode : Constant
Bit rate : 448 Kbps
Channel(s) : 6 channels
Channel positions : Front: L C R, Side: L R, LFE
Sampling rate : 48.0 KHz
Bit depth : 16 bits
Compression mode : Lossy
Stream size : 311 MiB (14%)
Language : English
Default : No
Forced : No

Text #1
ID : 4
Format : UTF-8
Codec ID : S_TEXT/UTF8
Codec ID/Info : UTF-8 Plain Text
Language : Russian
Default : No
Forced : No

Text #2
ID : 5
Format : UTF-8
Codec ID : S_TEXT/UTF8
Codec ID/Info : UTF-8 Plain Text
Title : SDH
Language : English
Default : No
Forced : No





   Похожие торренты   Торрент   Размер 
В этой теме нет новых непрочитанных сообщений. Хранители снов / Rise of the Guardians (2012) BDRip от Youtracker | D | лицензия

46 | 9

745.16 МБ

В этой теме нет новых непрочитанных сообщений. Хранители снов / Rise of the Guardians (2012) BDRip от Youtracker | D | лицензия

28 | 6

2.18 ГБ

В этой теме нет новых непрочитанных сообщений. Хранители снов / Rise of the Guardians (2012) BDRip от Youtracker | D | лицензия

98 | 8

1.46 ГБ

В этой теме нет новых непрочитанных сообщений. Хранители снов / Rise of the Guardians (2012) BDRip 1080p от Youtracker | 3D-Video | Лицензия

22 | 7

11.48 ГБ

В этой теме нет новых непрочитанных сообщений. Хранители снов / Rise of the Guardians (2012) DVD5 от Youtracker | D | сжатый | лицензия

5 | 3

4.37 ГБ

В этой теме нет новых непрочитанных сообщений. Хранители снов / Rise of the Guardians (2012) DVD9 R5 от Youtracker | D

4 | 3

6.57 ГБ

В этой теме нет новых непрочитанных сообщений. Хранители снов / Rise of the Guardians (2012) BDRip от HQCLUB | Лицензия

3120 | 114

1.45 ГБ




Вы не можете начинать темы
Вы не можете отвечать на сообщения
Вы не можете редактировать свои сообщения
Вы не можете удалять свои сообщения
Вы не можете добавлять вложения

Перейти:  
Для Мосгорсуда, Роскомнадзора и рекламодателей: mosgorsud-torrent[собачка]yandex.ru
 Вход
ppkBB3cker v.2 © 2008-2014 @ PPK
[ Time : 0.051s | 14 Queries | GZIP : Off ]

Торрент трекер RUTOR.IN, Не можете зайти на rutor.org? Какой новый адрес рутор? Какое зеркало рутор? Не работает rutor.org и зеркала? Тогда наш торрент специально для вас. Rutor.in неофициальное зеркало rutor. В случае если у Вас заблокирован rutor или вдруг Вы не можете на него зайти, то Вы без труда сможете скачать бесплатно и без рекламы последние новинки кино, игр, сериалов и прочего у нас, на Rutor.in. Не нужно использовать прокси, чтобы зайти на рутор, достаточно воспользоваться нашим ресурсом. Все новые фильмы, игры, сериалы, книги и музыка за 2013 и 2014 годы через торрент бесплатно. Скачивайте фильмы в хорошем качестве, игры для пк, xbox, playstation без регистрации. У нас вы найдете новые Зарубежные сериалы и Русские сериалы 2013, 2014, 2015 годов. Оставайтесь с нами, качайте любимые фильмы, игры, сериалы, книги и музыку.