img image001 image001 image001 image001 image001 image001 image001 image001 image001 image001 image001 image001 image001 image001 image001

Planets Sun Sun Sun
Статистика раздачи
Автор: Снежана | Размер: 1.46 ГБ | Добавлен: 27 июл 2013
Раздают: 12    Качают: 3
Скачать торрент
Скачать торрент
Описание торрента

СообщениеДобавлено: 27 июл 2013 

#77
Год выпуска: 2011
Страна: Япония, Канада
Жанр: мультфильм, фэнтези, приключения
Продолжительность: 01:27:28

Перевод: Профессиональный (полное дублирование)
Субтитры: нет
Оригинальная аудиодорожка: нет

Режиссер: Такаши Ямадзаки / Takashi Yamazaki

Роли дублировали: Андрей Рожков, Александр Ревва, Сергей Нетиевский и др.

Описание: Далеко в океане, покрытый густым туманом и похожий на привидение, спрятался Остров. По легенде, на нем живут монстры, которые охраняют растущие там чудесные ягоды и грибы. Приближаться к Острову запрещено… Однажды мальчик из племени случайно оказался на Острове и столкнулся лицом к лицу со всем таинственным, что на нем было. Поначалу монстры приняли его дружелюбно, но мальчик оказался настоящим чертенком. Монстры, устав от его выходок, решили отправить его обратно. Попадет ли он обратно домой и сохранит ли тайну Острова? Разгадка наступит в самом конце…





Исходник: DVD5 R5
Тип релиза: DVDRip
Контейнер: AVI

Видео: 704x400 (16:9), 25 fps, XviD ~ 1927 kbps avg, 0.274 bit/pixel
Аудио: 48 kHz, Dolby AC3 5.1, 448 kbps

Раздача от:
Общее
Полное имя : Monstry.na.ostrove.2011.D.DVDRip_[Youtracker]_by_AVP Studio.avi
Формат : AVI
Формат/Информация : Audio Video Interleave
Размер файла : 1,46 Гбайт
Продолжительность : 1 ч. 27 м.
Общий поток : 2385 Кбит/сек
Программа кодирования : VirtualDubMod 1.5.10.3 | www.virtualdub-fr.org || (build 2550/release)
Библиотека кодирования : VirtualDubMod build 2550/release

Видео
Идентификатор : 0
Формат : MPEG-4 Visual
Профиль формата : Advanced Simple@L5
Параметр BVOP формата : 1
Параметр QPel формата : Нет
Параметр GMC формата : Без точки перехода
Параметр матрицы формата : Выборочная
Идентификатор кодека : XVID
Идентификатор кодека/Подсказка : XviD
Продолжительность : 1 ч. 27 м.
Битрейт : 1927 Кбит/сек
Ширина : 704 пикселя
Высота : 400 пикселей
Соотношение сторон : 16:9
Частота кадров : 25,000 кадров/сек
Цветовое пространство : YUV
Субдискретизация насыщенности : 4:2:0
Битовая глубина : 8 бит
Тип развёртки : Прогрессивная
Метод сжатия : С потерями
Бит/(Пиксели*Кадры) : 0.274
Размер потока : 1,18 Гбайт (81%)
Библиотека кодирования : XviD 65

Аудио
Идентификатор : 1
Формат : AC-3
Формат/Информация : Audio Coding 3
Расширение режима : CM (complete main)
Идентификатор кодека : 2000
Продолжительность : 1 ч. 27 м.
Вид битрейта : Постоянный
Битрейт : 448 Кбит/сек
Каналы : 6 каналов
Расположение каналов : Front: L C R, Side: L R, LFE
Частота : 48,0 КГц
Битовая глубина : 16 бит
Метод сжатия : С потерями
Размер потока : 280 Мбайт (19%)
Выравнивание : Разделение по промежуткам
Продолжительность промежутка : 40 мс. (1,00 видеокадр)
Время предзагрузки промежутка : 500 мс



http://rutor.org/torrent/264949/monstry-na-ostrove-3d_friends-mononokeshima-no-naki-2011-dvdrip-licenzija
http://www.check2pic.ru/compare/28106/
Конкурент откропал по сторонам черные полосы, а затем растянул картинку до 720, хотя по ширине оставалось 708 пикселей, что категорически делать нельзя. Из-за этого потеря четкости и артефакты.



   Похожие торренты   Торрент   Размер 
В этой теме нет новых непрочитанных сообщений. Монстры на острове / Friends: Mononokeshima no Naki (2011) DVDRip-AVC от Youtracker

70 | 10

1.46 ГБ

В этой теме нет новых непрочитанных сообщений. Монстры на острове / Friends: Mononokeshima no Naki (2011) DVDRip от Youtracker

0 | 2

744.97 МБ

В этой теме нет новых непрочитанных сообщений. Монстры на острове / Friends: Mononokeshima no Naki (2011) DVD5 R5 от Youtracker | лицезия

16 | 6

3.85 ГБ

В этой теме нет новых непрочитанных сообщений. Монстры на острове / Friends: Mononokeshima no Naki (2011) DVDRip-AVC от UAGet | Tablet PC

31 | 4

729.55 МБ

В этой теме нет новых непрочитанных сообщений. Монстры и пираты / Monsters & Pirates [02x01-13 из 13] (2011) DVDRip от Youtracker | P

3 | 5

2.95 ГБ

В этой теме нет новых непрочитанных сообщений. Монстры и пираты / Monsters & Pirates [02x01-13 из 13] (2011) DVDRip-AVC от Youtracker | P

4 | 5

2.96 ГБ

В этой теме нет новых непрочитанных сообщений. Монстры и пираты / Monsters & Pirates [02x01-13 из 13] (2011) 2xDVD5 от Youtracker | P | Лицензия

0 | 2

8.71 ГБ




Вы не можете начинать темы
Вы не можете отвечать на сообщения
Вы не можете редактировать свои сообщения
Вы не можете удалять свои сообщения
Вы не можете добавлять вложения

Перейти:  
Для Мосгорсуда, Роскомнадзора и рекламодателей: mosgorsud-torrent[собачка]yandex.ru
 Вход
ppkBB3cker v.2 © 2008-2014 @ PPK
[ Time : 0.078s | 15 Queries | GZIP : Off ]
CGP output time : 0.043s | 5 Queries | GZIP : Off

Торрент трекер RUTOR.IN, Не можете зайти на rutor.org? Какой новый адрес рутор? Какое зеркало рутор? Не работает rutor.org и зеркала? Тогда наш торрент специально для вас. Rutor.in неофициальное зеркало rutor. В случае если у Вас заблокирован rutor или вдруг Вы не можете на него зайти, то Вы без труда сможете скачать бесплатно и без рекламы последние новинки кино, игр, сериалов и прочего у нас, на Rutor.in. Не нужно использовать прокси, чтобы зайти на рутор, достаточно воспользоваться нашим ресурсом. Все новые фильмы, игры, сериалы, книги и музыка за 2013 и 2014 годы через торрент бесплатно. Скачивайте фильмы в хорошем качестве, игры для пк, xbox, playstation без регистрации. У нас вы найдете новые Зарубежные сериалы и Русские сериалы 2013, 2014, 2015 годов. Оставайтесь с нами, качайте любимые фильмы, игры, сериалы, книги и музыку.