img image001 image001 image001 image001 image001 image001 image001 image001 image001 image001 image001 image001 image001 image001 image001

Planets Sun Sun Sun
Статистика раздачи
Автор: Снежана | Размер: 1.84 ГБ | Добавлен: 27 июл 2013
Раздают: 30    Качают: 8
Скачать торрент
Скачать торрент
Описание торрента

СообщениеДобавлено: 27 июл 2013 

#77

Информация о фильме
Название: Город колдунов
Оригинальное название: Los reyes magos
Год выхода: 2003
Жанр: Мультфильм, семейный
Режиссер: Антонио Наварро
Озвучивали: Хосе Коронадо, Хуан Эчанове, Иманоль Ариас, Хавьер Гурручага, Иньяки Хабилондо, Хосе Санчо, Дэвид Роблз, Мар Бордальо, Хосе Луис Ангуло, Педро Тена, Рикардо Гомез, Джон Ариас, Хосе Луис Джил, Мерседес Чепеда, Рауль Альканьис, Рафаэль Аскаррага, Вайолетт Бертран, Стивен Хьюз, Рикардо Салинас, Мартин Шин, Гари Анхони Сеннетт, Крэйг Стивенсон, Эрик Эбони, Эмилио Эстевез, Эдди Мартин, Джэси Веласкез

О фильме: Черный маг Белиал стремится завладеть сокровищами Древнего Храма и безраздельно господствовать над миром. Коварным планам противостоят три колдуна — Мельхиор, Гаспар, Балтазар. Схватка героев в жарких пустынях, океанах льда и мрачных лабиринтах Соляного Города поможет остановить зло и откроет великую тайну…



Страна: Франция, Испания / Animagicstudio, Carrère Groupe, TeleMadrid
Продолжительность: 01:16:00
Перевод: Дублированный / Авторский, одноголосый (Андрей Дольский)
Дата релиза: 22.03.2013

Файл
Кодек: MPEG-4 AVC
Качество: DVDRip (AVC)
Видео: 1024x544, 2530 Кбит/с
Звук: ДБ (МОСФИЛЬМ-мастер) (AC3, 6 ch, 384 Кбит/с) / АО (А.Дольский) (AC3, 2 ch, 192 Кбит/с) / Испанский (оригинал) (AC3, 6 ch, 384 Кбит/с)

Семпл







Unique ID : 208699875629588226501394072244950671525 (0x9D02224CF04F7B41ABA0C54E241420A5)
Complete name : Gorod.koldunov.2003.x264.DVDRip.(AVC).Filmoray.Sheikn.mkv
Format : Matroska
Format version : Version 2
File size : 1.84 GiB
Duration : 1h 16mn
Overall bit rate : 3 465 Kbps
Encoded date : UTC 2013-03-11 12:22:17
Writing application : mkvmerge v4.0.0 ('The Stars were mine') сборка от Jun 6 2010 16:18:42
Writing library : libebml v1.0.0 + libmatroska v1.0.0
Video #1
ID : 1
Format : AVC
Format/Info : Advanced Video Codec
Format profile : High@L4.1
Format settings, CABAC : Yes
Format settings, ReFrames : 5 frames
Codec ID : V_MPEG4/ISO/AVC
Duration : 1h 16mn
Bit rate : 2 530 Kbps
Width : 1 024 pixels
Height : 544 pixels
Display aspect ratio : 1.85:1
Frame rate mode : Constant
Frame rate : 25.000 fps
Color space : YUV
Chroma subsampling : 4:2:0
Bit depth : 8 bits
Scan type : Progressive
Bits/(Pixel*Frame) : 0.182
Stream size : 1.29 GiB (70%)
Writing library : x264 core 119 r2106 07efeb4
Encoding settings : cabac=1 / ref=5 / deblock=1:-2:-2 / analyse=0x3:0x113 / me=hex / subme=8 / psy=1 / psy_rd=1.00:0.00 / mixed_ref=1 / me_range=16 / chroma_me=1 / trellis=2 / 8x8dct=1 / cqm=0 / deadzone=21,11 / fast_pskip=1 / chroma_qp_offset=-2 / threads=6 / sliced_threads=0 / nr=0 / decimate=1 / interlaced=0 / bluray_compat=0 / constrained_intra=0 / bframes=2 / b_pyramid=2 / b_adapt=1 / b_bias=0 / direct=1 / weightb=1 / open_gop=0 / weightp=1 / keyint=250 / keyint_min=25 / scenecut=40 / intra_refresh=0 / rc_lookahead=30 / rc=abr / mbtree=1 / bitrate=2530 / ratetol=1.0 / qcomp=0.60 / qpmin=0 / qpmax=69 / qpstep=4 / ip_ratio=1.40 / aq=1:1.00
Default : No
Forced : No
Audio #2
ID : 2
Format : AC-3
Format/Info : Audio Coding 3
Mode extension : CM (complete main)
Format settings, Endianness : Big
Codec ID : A_AC3
Duration : 1h 16mn
Bit rate mode : Constant
Bit rate : 384 Kbps
Channel(s) : 6 channels
Channel positions : Front: L C R, Side: L R, LFE
Sampling rate : 48.0 KHz
Bit depth : 16 bits
Compression mode : Lossy
Stream size : 209 MiB (11%)
Title : Дублированный
Language : Russian
Default : No
Forced : No
Audio #3
ID : 3
Format : AC-3
Format/Info : Audio Coding 3
Mode extension : CM (complete main)
Format settings, Endianness : Big
Codec ID : A_AC3
Duration : 1h 16mn
Bit rate mode : Constant
Bit rate : 192 Kbps
Channel(s) : 2 channels
Channel positions : Front: L R
Sampling rate : 48.0 KHz
Bit depth : 16 bits
Compression mode : Lossy
Stream size : 104 MiB (6%)
Title : Авторский, одноголосый (Андрей Дольский)
Language : Russian
Default : No
Forced : No
Audio #4
ID : 4
Format : AC-3
Format/Info : Audio Coding 3
Mode extension : CM (complete main)
Format settings, Endianness : Big
Codec ID : A_AC3
Duration : 1h 16mn
Bit rate mode : Constant
Bit rate : 384 Kbps
Channel(s) : 6 channels
Channel positions : Front: L C R, Side: L R, LFE
Sampling rate : 48.0 KHz
Bit depth : 16 bits
Compression mode : Lossy
Stream size : 209 MiB (11%)
Title : Оригинал (Испанский)
Language : Spanish
Default : No
Forced : No


Релиз от:



   Похожие торренты   Торрент   Размер 
В этой теме нет новых непрочитанных сообщений. Последний самурай / The Last Samurai (2003) BDRip-AVC от FilmoRay & Sheikn

7 | 4

6.77 ГБ

В этой теме нет новых непрочитанных сообщений. Доктор влюбился / Doctor in Love (1960) DVDRip от FilmoRay & Sheikn | P2

8 | 3

1.27 ГБ

В этой теме нет новых непрочитанных сообщений. Приключения Рокки и Буллвинкля / The Adventures of Rocky & Bullwinkle (2000) DVDRip-AVC от FilmoRay & Sheikn

27 | 5

2.25 ГБ

В этой теме нет новых непрочитанных сообщений. Портрет Дориана Грея / The Picture of Dorian Gray (1945) DVDRip от FilmoRay & Sheikn | P

37 | 3

1.68 ГБ

В этой теме нет новых непрочитанных сообщений. Маги и великаны / Magos y gigantes (2003) DVDRip

93 | 14

1.37 ГБ

В этой теме нет новых непрочитанных сообщений. Аэропорт 1975 / Airport 1975 (1974) DVDRip-AVC от FilmoRay & Sheikn | P

21 | 3

2.13 ГБ

В этой теме нет новых непрочитанных сообщений. Профессионал / Le professionnel (1981) BDRip-AVC от FilmoRay & Sheikn

38 | 7

3.66 ГБ




Вы не можете начинать темы
Вы не можете отвечать на сообщения
Вы не можете редактировать свои сообщения
Вы не можете удалять свои сообщения
Вы не можете добавлять вложения

Перейти:  
Для Мосгорсуда, Роскомнадзора и рекламодателей: mosgorsud-torrent[собачка]yandex.ru
 Вход
ppkBB3cker v.2 © 2008-2014 @ PPK
[ Time : 0.023s | 14 Queries | GZIP : Off ]

Торрент трекер RUTOR.IN, Не можете зайти на rutor.org? Какой новый адрес рутор? Какое зеркало рутор? Не работает rutor.org и зеркала? Тогда наш торрент специально для вас. Rutor.in неофициальное зеркало rutor. В случае если у Вас заблокирован rutor или вдруг Вы не можете на него зайти, то Вы без труда сможете скачать бесплатно и без рекламы последние новинки кино, игр, сериалов и прочего у нас, на Rutor.in. Не нужно использовать прокси, чтобы зайти на рутор, достаточно воспользоваться нашим ресурсом. Все новые фильмы, игры, сериалы, книги и музыка за 2013 и 2014 годы через торрент бесплатно. Скачивайте фильмы в хорошем качестве, игры для пк, xbox, playstation без регистрации. У нас вы найдете новые Зарубежные сериалы и Русские сериалы 2013, 2014, 2015 годов. Оставайтесь с нами, качайте любимые фильмы, игры, сериалы, книги и музыку.