img image001 image001 image001 image001 image001 image001 image001 image001 image001 image001 image001 image001 image001 image001 image001

Planets Sun Sun Sun
Статистика раздачи
Автор: Снежана | Размер: 4.37 ГБ | Добавлен: 27 июл 2013
Раздают: 14    Качают: 4
Скачать торрент
Скачать торрент
Описание торрента

СообщениеДобавлено: 27 июл 2013 

Винни и Слонотоп

Pooh's Heffalump Movie

«Большие приключения на большом экране»




#77
Год выпуска: 2005
Страна: США
Жанр: мультфильм, фэнтези, детектив, семейный, ...
Продолжительность: 01:07:57
Перевод: Профессиональный (дублированный)
Субтитры: Russian (UTF-8), English (UTF-8)

Режиссер: Фрэнк Ниссен
Сценарий: Брайан Холфельд, Эван Спилиотопулос, Алан Милн
Продюсер: Джессика Коплос-Миллер, Клэй Ренфро
Композитор: Джоэл МакНили
Художник: Тони Пулэм
Монтаж: Нэнси Фрэйзен, Энтони Ф. Рокко

В ролях: Джим Каммингс / Jim Cummings (Winnie the Pooh / Tigger, озвучка), Джон Фидлер / John Fiedler (Piglet, озвучка), Никита Хопкинс / Nikita Hopkins (Roo, озвучка), Кэт Сауси / Kath Soucie (Kanga, озвучка), Кен Сэнсом / Ken Sansom (Rabbit, озвучка), Питер Каллен / Peter Cullen (Eeyore, озвучка), Бренда Блетин / Brenda Blethyn (Mama Heffalump, озвучка), Кайл Стэнджер / Kyle Stanger (Lumpy, озвучка)


Описание: Веселые приключения забавного медвежонка Винни и его друзей продолжаются! На этот раз они отправляются на поиски ужасного Слонотопа, который поселился в их лесу. И только маленького Кенгуренка Ру они оставляют дома.Но маленькому непоседе тоже страшно интересно увидеть невиданного зверя. Кто же первым найдет таинственного Слонотопа, и какой же он на самом деле?


Бюджет: $20 000 000
Сборы в США: $18 098 433
Сборы в мире: + $34 760 000 = $52 858 433
Сборы в России: $920 000
Зрители: США 2.82 млн , Польша 578.8 тыс. , Чехия 520.2 тыс.
Премьера (мир): 10 февраля 2005, ...
Премьера (РФ): 17 марта 2005, «Каскад»
Релиз на DVD: 3 августа 2009, «CP-Digital», ...
Рейтинг MPAA: Нет возрастных ограничений



Качество: HDTVRip
Формат: MKV
Видео кодек: AVC
Аудио кодеk: AC3
Видео: 1920x1080 (16:9), 29.970 fps, AVC, 8 313 Kbps
Аудио #1: AC3, 448 Kbps, 48.0 KHz, 6 ch (RUS Dub)
Аудио #2: AC3, 448 Kbps, 48.0 KHz, 6 ch (English)




ЛОГ :
x264 [info]: frame I:1132 Avg QP:14.70 size:272548
x264 [info]: frame P:29559 Avg QP:18.39 size: 75509
x264 [info]: frame B:91518 Avg QP:20.39 size: 18523

General
Complete name : Pooh's.Heffalump.Movie.2005.1080ð.mkv
Format : Matroska
File size : 4.37 GiB
Duration : 1h 7mn
Overall bit rate : 9 208 Kbps
Encoded date : UTC 2013-03-23 07:53:08
Writing application : mkvmerge v5.3.0 ('I could have danced') built on Feb 9 2012 10:38:07
Writing library : libebml v1.2.3 + libmatroska v1.3.0

Video
ID : 1
Format : AVC
Format/Info : Advanced Video Codec
Format profile : High@L4.1
Format settings, CABAC : Yes
Format settings, ReFrames : 5 frames
Muxing mode : Container profile=Unknown@4.1
Codec ID : V_MPEG4/ISO/AVC
Duration : 1h 7mn
Bit rate : 8 313 Kbps
Width : 1 920 pixels
Height : 1 080 pixels
Display aspect ratio : 16:9
Frame rate : 29.970 fps
Color space : YUV
Chroma subsampling : 4:2:0
Bit depth : 8 bits
Scan type : Progressive
Bits/(Pixel*Frame) : 0.134
Stream size : 3.86 GiB (88%)
Writing library : x264 core 125 r2200 999b753
Encoding settings : cabac=1 / ref=5 / deblock=1:1:1 / analyse=0x3:0x133 / me=umh / subme=10 / psy=1 / psy_rd=1.10:1.00 / mixed_ref=1 / me_range=32 / chroma_me=1 / trellis=2 / 8x8dct=1 / cqm=0 / deadzone=21,11 / fast_pskip=1 / chroma_qp_offset=-4 / threads=6 / lookahead_threads=1 / sliced_threads=0 / nr=0 / decimate=1 / interlaced=0 / bluray_compat=0 / constrained_intra=0 / bframes=8 / b_pyramid=2 / b_adapt=2 / b_bias=0 / direct=3 / weightb=1 / open_gop=0 / weightp=0 / keyint=250 / keyint_min=25 / scenecut=40 / intra_refresh=0 / rc=2pass / mbtree=0 / bitrate=8313 / ratetol=1.0 / qcomp=1.00 / qpmin=0 / qpmax=51 / qpstep=4 / cplxblur=20.0 / qblur=0.5 / ip_ratio=1.40 / pb_ratio=1.30 / aq=1:1.00
Color primaries : BT.709-5, BT.1361, IEC 61966-2-4, SMPTE RP177
Transfer characteristics : BT.709-5, BT.1361
Matrix coefficients : BT.709-5, BT.1361, IEC 61966-2-4 709, SMPTE RP177

Audio #1
ID : 2
Format : AC-3
Format/Info : Audio Coding 3
Mode extension : CM (complete main)
Codec ID : A_AC3
Duration : 1h 7mn
Bit rate mode : Constant
Bit rate : 448 Kbps
Channel(s) : 6 channels
Channel positions : Front: L C R, Side: L R, LFE
Sampling rate : 48.0 KHz
Bit depth : 16 bits
Stream size : 218 MiB (5%)
Language : Russian

Audio #2
ID : 3
Format : AC-3
Format/Info : Audio Coding 3
Mode extension : CM (complete main)
Codec ID : A_AC3
Duration : 1h 7mn
Bit rate mode : Constant
Bit rate : 448 Kbps
Channel(s) : 6 channels
Channel positions : Front: L C R, Side: L R, LFE
Sampling rate : 48.0 KHz
Bit depth : 16 bits
Video delay : 28ms
Stream size : 218 MiB (5%)

Text #1
ID : 4
Format : UTF-8
Codec ID : S_TEXT/UTF8
Codec ID/Info : UTF-8 Plain Text
Language : Russian

Text #2
ID : 5
Format : UTF-8
Codec ID : S_TEXT/UTF8
Codec ID/Info : UTF-8 Plain Text




Релиз от:



   Похожие торренты   Торрент   Размер 
В этой теме нет новых непрочитанных сообщений. Винни и Слонотоп / Pooh's Heffalump Movie (2005) BDRip от HQ-ViDEO

18 | 2

1.46 ГБ

В этой теме нет новых непрочитанных сообщений. Винни и Слонотоп / Pooh's Heffalump Movie (2005) BDRip 720p

85 | 7

2.36 ГБ

В этой теме нет новых непрочитанных сообщений. Винни и Слонотоп / Pooh's Heffalump Movie (2005) DVDRip от Generalfilm

3 | 4

699.25 МБ

В этой теме нет новых непрочитанных сообщений. Винни Пух и Слонотоп Хэллоуин / Pooh's Heffalump Halloween Movie (2005) DVDRip

82 | 8

700.18 МБ

В этой теме нет новых непрочитанных сообщений. Винни Пух: Рождественский Пух / Winnie the Pooh: A Very Merry Pooh Year (2002) BDRip 1080p от Leonardo and Scarabey | D, A

131 | 26

2.68 ГБ

В этой теме нет новых непрочитанных сообщений. Винни Пух: Рождественский Пух / Winnie the Pooh: A Very Merry Pooh Year (2002) BDRip от HQCLUB

262 | 23

1.09 ГБ

В этой теме нет новых непрочитанных сообщений. Винни Пух: Рождественский Пух / Winnie the Pooh: A Very Merry Pooh Year (2002) BDRip от New-Team | P

112 | 3

744.65 МБ




Вы не можете начинать темы
Вы не можете отвечать на сообщения
Вы не можете редактировать свои сообщения
Вы не можете удалять свои сообщения
Вы не можете добавлять вложения

Перейти:  
Для Мосгорсуда, Роскомнадзора и рекламодателей: mosgorsud-torrent[собачка]yandex.ru
 Вход
ppkBB3cker v.2 © 2008-2014 @ PPK
[ Time : 0.028s | 14 Queries | GZIP : Off ]

Торрент трекер RUTOR.IN, Не можете зайти на rutor.org? Какой новый адрес рутор? Какое зеркало рутор? Не работает rutor.org и зеркала? Тогда наш торрент специально для вас. Rutor.in неофициальное зеркало rutor. В случае если у Вас заблокирован rutor или вдруг Вы не можете на него зайти, то Вы без труда сможете скачать бесплатно и без рекламы последние новинки кино, игр, сериалов и прочего у нас, на Rutor.in. Не нужно использовать прокси, чтобы зайти на рутор, достаточно воспользоваться нашим ресурсом. Все новые фильмы, игры, сериалы, книги и музыка за 2013 и 2014 годы через торрент бесплатно. Скачивайте фильмы в хорошем качестве, игры для пк, xbox, playstation без регистрации. У нас вы найдете новые Зарубежные сериалы и Русские сериалы 2013, 2014, 2015 годов. Оставайтесь с нами, качайте любимые фильмы, игры, сериалы, книги и музыку.